Поиск

(Fusion, Afrobeat, Ethnic Jazz, Modern Creative) [CD] Hu Vibrational - Universal Mother - Boonghee Music 3 - 2006, FLAC (tracks+.cue), lossless

(Fusion, Afrobeat, Ethnic Jazz, Modern Creative) [CD] Hu Vibrational - Universal Mother - Boonghee Music 3 - 2006, FLAC (tracks+.cue), lossless
Hu Vibrational / Universal Mother - Boonghee Music 3
Жанр: Fusion, Afrobeat, Ethnic Jazz, Modern Creative
Носитель: CD
Страна-производитель диска (релиза): UK
Год издания: 2006
Издатель (лейбл): Soul Jazz Records
Номер по каталогу: SJR CD 139
Страна исполнителя (группы): USA
Аудиокодек: FLAC (*.flac)
Тип рипа: tracks+.cue
Битрейт аудио: lossless
Продолжительность: 39:13
Источник (релизер): iPooh27
Наличие сканов в содержимом раздачи: нет
Треклист:
01. Twins (4:14)
02. Luna (0:44)
03. We Call To Her (6:22)
04. Amma (2:14)
05. Meta M'Bulu (4:12)
06. Hakuna (1:10)
07. Nammu (2:23)
08. Her Dream Of Peace (2:22)
09. Born From The Sea (4:22)
10. Mandala (2:27)
11. M'Bip (0:58)
12. Ninety-Six Lotus Blossoms (1:16)
13. Red Ochre Cowrie (4:13)
14. In The Field [With Yusef Lateef] (2:07)
 
О релизе
Adam Rudolph – Bass Drum, Brekete, Kalangu Talking Drum, Tarija, Bells, Goblet Drum, Birds, Handclaps, Cymbal, Gong, Triangle, Zither, Rebolo, Zabumba, Shaker, Bells, Kalimba, Umtshingo, Udu
Hamid Drake – Gourd, Udu
Brahim Fribgane – Goblet Drum, Voice, Tarijas, Sintir, Bendir, Udu
Joshua Spiegelman – Bamboo Flute (on 3, 5, 13)
Yusef Lateef – Recitation (on 14)
Music composed by Adam Rudolph with Brahim Fribgane and Hamid Drake
Arranged by Adam Rudolph
Produced by Carlos Niño
All music published by Migration Music BMI
except In The Field: music published by Migration Music BMI, words published by Alnur Publishing BMI
Tracks 1, 2, 3, 5, 7, 9, 12, 13 recorded by Elvin "Nobody" Estela with additional recording by Adam Rudolph
Tracks 4, 6 8, 10, 11, 14 recorded by Adam Rudolph


UNIVERSAL MOTHER: Recent discoveries reveal that the mitochondrial DNA in all humans is inherited from one common female ancestor in Africa approximately 200,000 years ago. We have a Universal Mother. Hu Vibrational's visit with the spirit of our Universal Mother illuminates what it means to belong to the one race, the human race, whose mother we all share. The music on this recording is an offering of gratitude to her. It echoes her call to us, her children, to recognize each other as the sisters and brothers we are, and to treat one another as we would wish to be treated —with loving kindness and compassion.
HANDMADE: Every instrument played on this recording was made by hand. Gourds, bamboo, wood, trees, rattan, clay, recycled bicycle spokes, sand, seeds, and skin are creatively combined to make unique musical instruments. If we listen, each instrument will teach us to play itself. When our minds are hearts are open, we move aside to assist the instrument in the telling of its story.
BOONGHEE MUSIC: Boonghee music is dance. The feeling of the dance is how the butterfly desires the flower. A thousand crickets give the rhythm. Birds and wind offer melodies of call and response. The dance is your imagination. Your movements are freedom.
Adam Rudolph, April 2006
Hu Vibrational's new album mixes deep percussive African rhythms and Afro- Jazz with elements of hip-hop and electronica recorded in Los Angeles, California. This is the second album by Hu Vibrational to be released on Soul Jazz Records and for those of you bought the first release this will not disappoint! Produced by West Coast left-field hip-hop/electronic/jazz artist Carlos Nino A/K/A Ammon Contact, the album features Adam Rudolph, Hamid Drake and Brahim Fribgane as well as special guest and deep jazz legend Yusef Lateef. Adam Rudolph and Hamid Drake have between them played and recorded with Pharoah Sanders, Herbie Hancock, Bill Laswell, Jah Wobble, Don Cherry and many more. With previous releases on Soul Jazz Records (Beautiful) and Scott Heren’s (Prefuse 73) Eastern developments label, Hu Vibrational’s deep spiritual music draws on the links between Africa, Jazz music and avant-garde Hip-Hop. Adam Rudolph co-founded the Mandingo Griot Society and has been working together for over recent years as musical partner to the great Yusef Lateef. He also runs the Go:Organic Orchestra a 22 piece percussion group. Carlos Nino A/K/A Ammon Contact has had releases on Ninja, Soul Jazz Records, Eastern Development and Plug Research. As well as being an integral part of Hu Vibrational he has also produced Dwight Trible and The Life Force Trio, Build An Ark and the Go;Organic Orchestra.
 
Отчёт EAC
Exact Audio Copy V1.0 beta 3 from 29. August 2011
EAC extraction logfile from 1. July 2013, 16:14
Hu Vibrational / Universal Mother
Used drive : Optiarc DVD RW AD-7260S Adapter: 2 ID: 1
Read mode : Secure
Utilize accurate stream : Yes
Defeat audio cache : No
Make use of C2 pointers : No
Read offset correction : 48
Overread into Lead-In and Lead-Out : No
Fill up missing offset samples with silence : Yes
Delete leading and trailing silent blocks : No
Null samples used in CRC calculations : Yes
Used interface : Native Win32 interface for Win NT & 2000
Gap handling : Appended to previous track
Used output format : Internal WAV Routines
Sample format : 44.100 Hz; 16 Bit; Stereo
TOC of the extracted CD
Track | Start | Length | Start sector | End sector
---------------------------------------------------------
1 | 0:00.00 | 4:15.56 | 0 | 19180
2 | 4:15.56 | 0:44.58 | 19181 | 22538
3 | 5:00.39 | 6:22.60 | 22539 | 51248
4 | 11:23.24 | 2:14.00 | 51249 | 61298
5 | 13:37.24 | 4:12.26 | 61299 | 80224
6 | 17:49.50 | 1:10.10 | 80225 | 85484
7 | 18:59.60 | 2:23.40 | 85485 | 96249
8 | 21:23.25 | 2:22.11 | 96250 | 106910
9 | 23:45.36 | 4:22.13 | 106911 | 126573
10 | 28:07.49 | 2:27.21 | 126574 | 137619
11 | 30:34.70 | 0:58.69 | 137620 | 142038
12 | 31:33.64 | 1:16.67 | 142039 | 147805
13 | 32:50.56 | 4:13.12 | 147806 | 166792
14 | 37:03.68 | 2:09.43 | 166793 | 176510
Track 1
Filename H:\EAC - FLAC\Universal Mother\01 - Twins.wav
Pre-gap length 0:00:02.00
Peak level 97.1 %
Extraction speed 4.0 X
Track quality 100.0 %
Copy CRC A16D04C1
Accurately ripped (confidence 2) [927EBA19] (AR v1)
Copy OK
Track 2
Filename H:\EAC - FLAC\Universal Mother\02 - Luna.wav
Peak level 82.5 %
Extraction speed 4.0 X
Track quality 100.0 %
Copy CRC 5698E5C8
Accurately ripped (confidence 2) [B4E40444] (AR v1)
Copy OK
Track 3
Filename H:\EAC - FLAC\Universal Mother\03 - We Call To Her.wav
Peak level 97.1 %
Extraction speed 4.7 X
Track quality 99.9 %
Copy CRC 520DCA78
Accurately ripped (confidence 2) [B2B99A13] (AR v1)
Copy OK
Track 4
Filename H:\EAC - FLAC\Universal Mother\04 - Amma.wav
Peak level 97.1 %
Extraction speed 5.0 X
Track quality 100.0 %
Copy CRC E4EB488A
Accurately ripped (confidence 2) [47CF3A2D] (AR v1)
Copy OK
Track 5
Filename H:\EAC - FLAC\Universal Mother\05 - Meta M'Bulu.wav
Peak level 93.3 %
Extraction speed 5.5 X
Track quality 100.0 %
Copy CRC 9B0AE95E
Accurately ripped (confidence 2) [4C5A8F21] (AR v1)
Copy OK
Track 6
Filename H:\EAC - FLAC\Universal Mother\06 - Hakuna.wav
Peak level 73.7 %
Extraction speed 5.7 X
Track quality 100.0 %
Copy CRC 207DE1FB
Accurately ripped (confidence 2) [D4DFC355] (AR v1)
Copy OK
Track 7
Filename H:\EAC - FLAC\Universal Mother\07 - Nammu.wav
Peak level 96.9 %
Extraction speed 5.9 X
Track quality 100.0 %
Copy CRC B2CC57E3
Accurately ripped (confidence 2) [75AE9976] (AR v1)
Copy OK
Track 8
Filename H:\EAC - FLAC\Universal Mother\08 - Her Dream Of Peace.wav
Peak level 94.4 %
Extraction speed 6.1 X
Track quality 100.0 %
Copy CRC B8807AE4
Accurately ripped (confidence 2) [A919D066] (AR v1)
Copy OK
Track 9
Filename H:\EAC - FLAC\Universal Mother\09 - Born From The Sea.wav
Peak level 97.1 %
Extraction speed 6.2 X
Track quality 100.0 %
Copy CRC E4F5DB32
Accurately ripped (confidence 2) [56DC940E] (AR v1)
Copy OK
Track 10
Filename H:\EAC - FLAC\Universal Mother\10 - Mandala.wav
Peak level 78.5 %
Extraction speed 6.4 X
Track quality 100.0 %
Copy CRC D64814A8
Accurately ripped (confidence 2) [4CBAA299] (AR v1)
Copy OK
Track 11
Filename H:\EAC - FLAC\Universal Mother\11 - M'Bip.wav
Peak level 79.4 %
Extraction speed 6.7 X
Track quality 100.0 %
Copy CRC D44A91CC
Accurately ripped (confidence 2) [3390F362] (AR v1)
Copy OK
Track 12
Filename H:\EAC - FLAC\Universal Mother\12 - Ninety-Six Lotus Blossoms.wav
Peak level 97.1 %
Extraction speed 6.5 X
Track quality 100.0 %
Copy CRC F0DA2DBD
Accurately ripped (confidence 2) [9847D17A] (AR v1)
Copy OK
Track 13
Filename H:\EAC - FLAC\Universal Mother\13 - Red Ochre Cowrie.wav
Peak level 97.1 %
Extraction speed 6.9 X
Track quality 100.0 %
Copy CRC 85C33BE8
Accurately ripped (confidence 2) [D4DA0BD7] (AR v1)
Copy OK
Track 14
Filename H:\EAC - FLAC\Universal Mother\14 - In The Field.wav
Peak level 49.9 %
Extraction speed 7.2 X
Track quality 100.0 %
Copy CRC 19D780FA
Accurately ripped (confidence 2) [0C0B32BA] (AR v1)
Copy OK
All tracks accurately ripped
No errors occurred
End of status report
 
Содержание индексной карты (.CUE)
REM GENRE Electronic
REM DATE 2006
REM DISCID C709310E
REM COMMENT "ExactAudioCopy v1.0b3"
PERFORMER "Hu Vibrational"
TITLE "Universal Mother"
FILE "01 - Twins.wav" WAVE
TRACK 01 AUDIO
TITLE "Twins"
PERFORMER "Hu Vibrational"
INDEX 01 00:00:00
FILE "02 - Luna.wav" WAVE
TRACK 02 AUDIO
TITLE "Luna"
PERFORMER "Hu Vibrational"
INDEX 01 00:00:00
FILE "03 - We Call To Her.wav" WAVE
TRACK 03 AUDIO
TITLE "We Call To Her"
PERFORMER "Hu Vibrational"
INDEX 01 00:00:00
FILE "04 - Amma.wav" WAVE
TRACK 04 AUDIO
TITLE "Amma"
PERFORMER "Hu Vibrational"
INDEX 01 00:00:00
FILE "05 - Meta M'Bulu.wav" WAVE
TRACK 05 AUDIO
TITLE "Meta M'Bulu"
PERFORMER "Hu Vibrational"
INDEX 01 00:00:00
FILE "06 - Hakuna.wav" WAVE
TRACK 06 AUDIO
TITLE "Hakuna"
PERFORMER "Hu Vibrational"
INDEX 01 00:00:00
FILE "07 - Nammu.wav" WAVE
TRACK 07 AUDIO
TITLE "Nammu"
PERFORMER "Hu Vibrational"
INDEX 01 00:00:00
FILE "08 - Her Dream Of Peace.wav" WAVE
TRACK 08 AUDIO
TITLE "Her Dream Of Peace"
PERFORMER "Hu Vibrational"
INDEX 01 00:00:00
FILE "09 - Born From The Sea.wav" WAVE
TRACK 09 AUDIO
TITLE "Born From The Sea"
PERFORMER "Hu Vibrational"
INDEX 01 00:00:00
FILE "10 - Mandala.wav" WAVE
TRACK 10 AUDIO
TITLE "Mandala"
PERFORMER "Hu Vibrational"
INDEX 01 00:00:00
FILE "11 - M'Bip.wav" WAVE
TRACK 11 AUDIO
TITLE "M'Bip"
PERFORMER "Hu Vibrational"
INDEX 01 00:00:00
FILE "12 - Ninety-Six Lotus Blossoms.wav" WAVE
TRACK 12 AUDIO
TITLE "Ninety-Six Lotus Blossoms"
PERFORMER "Hu Vibrational"
INDEX 01 00:00:00
FILE "13 - Red Ochre Cowrie.wav" WAVE
TRACK 13 AUDIO
TITLE "Red Ochre Cowrie"
PERFORMER "Hu Vibrational"
INDEX 01 00:00:00
FILE "14 - In The Field.wav" WAVE
TRACK 14 AUDIO
TITLE "In The Field"
PERFORMER "Hu Vibrational"
INDEX 01 00:00:00
01:23
238
Нет комментариев. Ваш будет первым!