Поиск

(Ethnic jazz, fusion, traditional, classical) [CD] Hijazz Project - Hijazz (2003), FLAC (tracks+.cue), lossless

(Ethnic jazz, fusion, traditional, classical) [CD] Hijazz Project - Hijazz (2003), FLAC (tracks+.cue), lossless

Hijazz Project - Hijazz (2003)
Жанр: Ethnic jazz, fusion, traditional, classical
Носитель: CD (compilation, archival)
Страна-производитель диска (релиза): Turkey
Год издания оригинала: 2003
Издатель (лейбл): Most production
Номер по каталогу: 6128-2
Страна исполнителя (группы) : Turkey
Аудио кодек: FLAC (*.flac)
Тип рипа: (tracks + .cue)
Битрейт аудио: lossless
Наличие сканов в содержимом раздачи: full scans, jpeg, 300 dpi
Продолжительность: 1:31:58
Источник (релизер): dasport (REDacted)
Трэклист:
CD 1
1. M. Alper Berksü - Hijazz (M. Alper Berksü) - 11: 43
2. Engin Gürkey - Türkü (Engin Gürkey) - 7: 11
3. M. Alper Berksü / Forea - Lom / Pavane (M. Alper Berksü / Gabriel Fauré) - 16: 44
4. Fatmagül Ergün Keşkek - Alfo La Source (Alphonse Hasselmans 1898) - 4: 02
5. Ayla Bursa Berksü - Air (Johann Sebastian Bach) - 5: 33
6. Ayla Bursa Berksü - La U Date Dominum (Wolfgang Amadeus Mozart) - 5: 22
7. Hamamizade İsmail Dede Efendi - Yüzündür Cihanı (Dede Efendi) - 6: 12
CD 2
1. Birol Yayla, Engin Gürkey - Sohbet-i Visal (Engin Gürkey and Birol Yayla) - 6: 46
2. Tamburi Cemil Bey - Nikriz Sirto (Tanburi Cemil Bey) - 7: 12
3. Birol Yayla - Bab-ı Esrar (Birol Yayla) - 5: 52
4. Tamburi Büyük Osman Efendi - Segah (Tanburi Büyük Osman Bey) - 3: 39
5. Nayî Osman Dede - Saba Peşrevi (Nayî Osman Dede) - 5: 49
6. M. Alper Berksü - Mindos (M. Alper Berksü) - 5: 53
 
CD1
 
Лог создания рипа (18. May 2015)
Exact Audio Copy V1.0 beta 3 from 29. August 2011
EAC extraction logfile from 18. May 2015, 21:07
Various Artists / Hijazz
Used drive : HL-DT-STDVDRAM GSA-T20N Adapter: 0 ID: 0
Read mode : Secure
Utilize accurate stream : Yes
Defeat audio cache : Yes
Make use of C2 pointers : No
Read offset correction : 667
Overread into Lead-In and Lead-Out : No
Fill up missing offset samples with silence : Yes
Delete leading and trailing silent blocks : No
Null samples used in CRC calculations : Yes
Used interface : Native Win32 interface for Win NT & 2000
Gap handling : Appended to previous track
Used output format : User Defined Encoder
Selected bitrate : 1024 kBit/s
Quality : High
Add ID3 tag : No
Command line compressor : C:\Program Files (x86)\Exact Audio Copy\Flac\flac.exe
Additional command line options : -8 -V -T "ARTIST=%artist%" -T "TITLE=%title%" -T "ALBUM=%albumtitle%" -T "DATE=%year%" -T "TRACKNUMBER=%tracknr%" -T "GENRE=%genre%" -T "PERFORMER=%albuminterpret%" -T "COMPOSER=%composer%" %haslyrics%--tag-from-file=LYRICS="%lyricsfile%"%haslyrics% -T "ALBUMARTIST=%albumartist%" -T "DISCNUMBER=%cdnumber%" -T "TOTALDISCS=%totalcds%" -T "TOTALTRACKS=%numtracks%" -T "COMMENT=%comment%" %source% -o %dest%
TOC of the extracted CD
Track | Start | Length | Start sector | End sector
---------------------------------------------------------
1 | 0:00.00 | 11:42.71 | 0 | 52720
2 | 11:42.71 | 7:11.26 | 52721 | 85071
3 | 18:54.22 | 16:44.17 | 85072 | 160388
4 | 35:38.39 | 4:01.45 | 160389 | 178508
5 | 39:40.09 | 5:33.00 | 178509 | 203483
6 | 45:13.09 | 5:22.34 | 203484 | 227667
7 | 50:35.43 | 6:12.06 | 227668 | 255573
Track 1
Filename D:\WhatCD\Hijazz Project - Hijazz (2003) [FLAC]\disc 1\01 -M. Alper Berksü - Hijazz.wav
Pre-gap length 0:00:02.00
Peak level 100.0 %
Extraction speed 2.9 X
Track quality 100.0 %
Test CRC D0AD6D33
Copy CRC D0AD6D33
Accurately ripped (confidence 3) [546236DE] (AR v2)
Copy OK
Track 2
Filename D:\WhatCD\Hijazz Project - Hijazz (2003) [FLAC]\disc 1\02 -Engin Gürkey - Türkü.wav
Pre-gap length 0:00:02.00
Peak level 100.0 %
Extraction speed 3.1 X
Track quality 100.0 %
Test CRC C07C30D2
Copy CRC C07C30D2
Accurately ripped (confidence 3) [ABE12BA9] (AR v2)
Copy OK
Track 3
Filename D:\WhatCD\Hijazz Project - Hijazz (2003) [FLAC]\disc 1\03 -M. Alper Berksü , Forea - Lom , Pavane.wav
Pre-gap length 0:00:02.00
Peak level 100.0 %
Extraction speed 3.7 X
Track quality 100.0 %
Test CRC 806DD500
Copy CRC 806DD500
Accurately ripped (confidence 3) [9A7D8658] (AR v2)
Copy OK
Track 4
Filename D:\WhatCD\Hijazz Project - Hijazz (2003) [FLAC]\disc 1\04 -A. Hasselmans - Alfo La Source.wav
Pre-gap length 0:00:02.00
Peak level 95.5 %
Extraction speed 3.7 X
Track quality 100.0 %
Test CRC 1D3C87D5
Copy CRC 1D3C87D5
Accurately ripped (confidence 3) [46A6B00D] (AR v2)
Copy OK
Track 5
Filename D:\WhatCD\Hijazz Project - Hijazz (2003) [FLAC]\disc 1\05 -J.S. Bach - Air.wav
Pre-gap length 0:00:02.00
Peak level 100.0 %
Extraction speed 3.6 X
Track quality 99.9 %
Test CRC F15779BF
Copy CRC F15779BF
Accurately ripped (confidence 3) [B28FCD54] (AR v2)
Copy OK
Track 6
Filename D:\WhatCD\Hijazz Project - Hijazz (2003) [FLAC]\disc 1\06 -W.A. Mozart - La U Date Dominum.wav
Pre-gap length 0:00:02.00
Peak level 100.0 %
Extraction speed 4.2 X
Track quality 100.0 %
Test CRC 632F3387
Copy CRC 632F3387
Accurately ripped (confidence 3) [0B808862] (AR v2)
Copy OK
Track 7
Filename D:\WhatCD\Hijazz Project - Hijazz (2003) [FLAC]\disc 1\07 -Hamamizade İsmail Dede Efendi - Yüzündür Cihanı.wav
Pre-gap length 0:00:02.00
Peak level 100.0 %
Extraction speed 4.4 X
Track quality 100.0 %
Test CRC B151FA5E
Copy CRC B151FA5E
Accurately ripped (confidence 3) [04A35DA9] (AR v2)
Copy OK
All tracks accurately ripped
No errors occurred
End of status report
---- CUETools DB Plugin V2.1.4
[CTDB TOCID: 3NxLjAsfB2xGwXikeuFIcBhqW3Q-] found
Submit result: 3NxLjAsfB2xGwXikeuFIcBhqW3Q- has been confirmed
Track | CTDB Status
1 | (2/2) Accurately ripped
2 | (2/2) Accurately ripped
3 | (2/2) Accurately ripped
4 | (2/2) Accurately ripped
5 | (2/2) Accurately ripped
6 | (2/2) Accurately ripped
7 | (2/2) Accurately ripped
==== Log checksum 694622A5D264C7154926BCB0AC3C26C8FEC7A4BD54C5BD30A526AA752DC4CCB4 ====
 
Содержание индексной карты (.CUE):
REM GENRE Jazz
REM DATE 2003
REM DISCID 4A0D4F07
REM COMMENT "ExactAudioCopy v1.0b3"
PERFORMER "Hijazz Project"
TITLE "Hijazz"
FILE "01 - M. Alper Berksü - Hijazz.wav" WAVE
TRACK 01 AUDIO
TITLE "Hijazz"
PERFORMER "M. Alper Berksü"
FLAGS DCP
INDEX 01 00:00:00
TRACK 02 AUDIO
TITLE "Türkü"
PERFORMER "Engin Gürkey"
FLAGS DCP
INDEX 00 11:40:71
FILE "02 - Engin Gürkey - Türkü.wav" WAVE
INDEX 01 00:00:00
TRACK 03 AUDIO
TITLE "Lom / Pavane"
PERFORMER "M. Alper Berksü / Forea"
FLAGS DCP
INDEX 00 07:09:26
FILE "03 - M. Alper Berksü, Forea - Lom, Pavane.wav" WAVE
INDEX 01 00:00:00
TRACK 04 AUDIO
TITLE "Alfo La Source"
PERFORMER "Fatmagül Ergün Keşkek"
FLAGS DCP
INDEX 00 16:42:17
FILE "04 - Fatmagül Ergün Keşkek - Alfo La Source.wav" WAVE
INDEX 01 00:00:00
TRACK 05 AUDIO
TITLE "Air"
PERFORMER "Ayla Bursa Berksü"
FLAGS DCP
INDEX 00 03:59:45
FILE "05 - Ayla Bursa Berksü - Air.wav" WAVE
INDEX 01 00:00:00
TRACK 06 AUDIO
TITLE "La U Date Dominum"
PERFORMER "Ayla Bursa Berksü"
FLAGS DCP
INDEX 00 05:31:00
FILE "06 - Ayla Bursa Berksü - La U Date Dominum.wav" WAVE
INDEX 01 00:00:00
TRACK 07 AUDIO
TITLE "Yüzündür Cihanı"
PERFORMER "Hamamizade İsmail Dede Efendi"
FLAGS DCP
INDEX 00 05:20:34
FILE "07 - Hamamizade İsmail Dede Efendi - Yüzündür Cihanı.wav" WAVE
INDEX 01 00:00:00
 
Лог проверки качества
-----------------------
DON'T MODIFY THIS FILE
-----------------------
PERFORMER: auCDtect Task Manager, ver. 1.6.0 RC1 build 1.6.0.1
Copyright (c) 2008-2010 y-soft. All rights reserved
http://y-soft.org
ANALYZER: auCDtect: CD records authenticity detector, version 0.8.2
Copyright (c) 2004 Oleg Berngardt. All rights reserved.
Copyright (c) 2004 Alexander Djourik. All rights reserved.
FILE: 07 - Hamamizade İsmail Dede Efendi - Yüzündür Cihanı.flac
Size: 39108088 Hash: 5528F0D6A092A469DD4D64681E57366C Accuracy: -m0
Conclusion: CDDA 100%
Signature: 37265B6859B324B967F953F64A74E0A96DFD1FA8
FILE: 06 - Ayla Bursa Berksü - La U Date Dominum.flac
Size: 31095462 Hash: ECD0B7C082309344421A778D2D48B8DF Accuracy: -m0
Conclusion: CDDA 100%
Signature: EA7310896833DAFAF21D0AD934C6909F9C4973D2
FILE: 05 - Ayla Bursa Berksü - Air.flac
Size: 31655196 Hash: 6299DA61118AA3911333218F3E99F865 Accuracy: -m0
Conclusion: CDDA 100%
Signature: 15866472BE05E38294CC7EFEDC05BF0EC53A64F5
FILE: 04 - Fatmagül Ergün Keşkek - Alfo La Source.flac
Size: 19656851 Hash: D675F958330F9BB6D84B68304C6830C0 Accuracy: -m0
Conclusion: CDDA 99%
Signature: 914CBBB16C1C16A7005388DA07D0C56BA85F979D
FILE: 03 - M. Alper Berksü, Forea - Lom, Pavane.flac
Size: 103097839 Hash: ECAD956A148F1A7B3FE22C96D21151A1 Accuracy: -m0
Conclusion: CDDA 100%
Signature: 13783F396FF3484269F88981206083B53AF82734
FILE: 02 - Engin Gürkey - Türkü.flac
Size: 45650166 Hash: E1FA55F5035653F3E8245B9F85B2C76A Accuracy: -m0
Conclusion: CDDA 100%
Signature: FD23995C90EF2DBCCE7398CBE5D01968F4ABFCDF
FILE: 01 - M. Alper Berksü - Hijazz.flac
Size: 70427047 Hash: 982F9D17EE1C99878C8010E1801FEDD0 Accuracy: -m0
Conclusion: CDDA 100%
Signature: 1732FD8D994CE41F7BE65D74C3B257CE6B802715
 
Замер динамического диапазона
foobar2000 1.3.10 / Замер динамического диапазона (DR) 1.1.1
Дата отчёта: 2017-06-19 16:32:04
--------------------------------------------------------------------------------
Анализ: Fatmagül Ergün Keşkek / Hijazz (1)
Engin Gürkey / Hijazz (2)
Hamamizade İsmail Dede Efendi / Hijazz (3)
Ayla Bursa Berksü / Hijazz (4)
M. Alper Berksü, Forea / Hijazz (5)
M. Alper Berksü / Hijazz (6)
Ayla Bursa Berksü / Hijazz (7)
--------------------------------------------------------------------------------
DR Пики RMS Продолжительность трека
--------------------------------------------------------------------------------
DR15 -0.39 дБ -20.89 дБ 4:02 04-Alfo La Source
DR10 0.00 дБ -13.45 дБ 7:11 02-Türkü
DR11 0.00 дБ -14.13 дБ 6:12 07-Yüzündür Cihanı
DR12 0.00 дБ -16.83 дБ 5:33 05-Air
DR12 0.00 дБ -15.75 дБ 16:44 03-Lom, Pavane
DR12 0.00 дБ -15.31 дБ 11:43 01-Hijazz
DR12 0.00 дБ -17.61 дБ 5:22 06-La U Date Dominum
--------------------------------------------------------------------------------
Количество треков: 7
Реальные значения DR: DR12
Частота: 44100 Гц
Каналов: 2
Разрядность: 16
Битрейт: 771 кбит/с
Кодек: FLAC
================================================================================
 
Матрица
 
CD2
 
Лог создания рипа (18. May 2015)
Exact Audio Copy V1.0 beta 3 from 29. August 2011
EAC extraction logfile from 18. May 2015, 21:39
Various Artists / Hijazz
Used drive : HL-DT-STDVDRAM GSA-T20N Adapter: 0 ID: 0
Read mode : Secure
Utilize accurate stream : Yes
Defeat audio cache : Yes
Make use of C2 pointers : No
Read offset correction : 667
Overread into Lead-In and Lead-Out : No
Fill up missing offset samples with silence : Yes
Delete leading and trailing silent blocks : No
Null samples used in CRC calculations : Yes
Used interface : Native Win32 interface for Win NT & 2000
Gap handling : Appended to previous track
Used output format : User Defined Encoder
Selected bitrate : 1024 kBit/s
Quality : High
Add ID3 tag : No
Command line compressor : C:\Program Files (x86)\Exact Audio Copy\Flac\flac.exe
Additional command line options : -8 -V -T "ARTIST=%artist%" -T "TITLE=%title%" -T "ALBUM=%albumtitle%" -T "DATE=%year%" -T "TRACKNUMBER=%tracknr%" -T "GENRE=%genre%" -T "PERFORMER=%albuminterpret%" -T "COMPOSER=%composer%" %haslyrics%--tag-from-file=LYRICS="%lyricsfile%"%haslyrics% -T "ALBUMARTIST=%albumartist%" -T "DISCNUMBER=%cdnumber%" -T "TOTALDISCS=%totalcds%" -T "TOTALTRACKS=%numtracks%" -T "COMMENT=%comment%" %source% -o %dest%
TOC of the extracted CD
Track | Start | Length | Start sector | End sector
---------------------------------------------------------
1 | 0:00.00 | 6:45.74 | 0 | 30448
2 | 6:45.74 | 7:11.74 | 30449 | 62847
3 | 13:57.73 | 5:51.62 | 62848 | 89234
4 | 19:49.60 | 3:39.25 | 89235 | 105684
5 | 23:29.10 | 5:48.53 | 105685 | 131837
6 | 29:17.63 | 5:52.42 | 131838 | 158279
Track 1
Filename D:\WhatCD\Hijazz Project - Hijazz (2003) [FLAC]\disc 2\01 -Birol Yayla, Engin Gürkey - Sohbet-i Visal.wav
Pre-gap length 0:00:02.00
Peak level 100.0 %
Extraction speed 2.4 X
Track quality 99.9 %
Test CRC F5B4436E
Copy CRC F5B4436E
Accurately ripped (confidence 3) [C2CEFBEE] (AR v2)
Copy OK
Track 2
Filename D:\WhatCD\Hijazz Project - Hijazz (2003) [FLAC]\disc 2\02 -Tamburi Cemil Bey - Nikriz Sirto.wav
Pre-gap length 0:00:02.00
Peak level 100.0 %
Extraction speed 3.1 X
Track quality 100.0 %
Test CRC 5125A474
Copy CRC 5125A474
Accurately ripped (confidence 3) [30E1FD27] (AR v2)
Copy OK
Track 3
Filename D:\WhatCD\Hijazz Project - Hijazz (2003) [FLAC]\disc 2\03 -Birol Yayla - Bab-ı Esrar.wav
Pre-gap length 0:00:02.00
Peak level 95.7 %
Extraction speed 2.6 X
Track quality 100.0 %
Test CRC 16F2D0A6
Copy CRC 16F2D0A6
Accurately ripped (confidence 3) [3301906F] (AR v2)
Copy OK
Track 4
Filename D:\WhatCD\Hijazz Project - Hijazz (2003) [FLAC]\disc 2\04 -Tamburi Büyük Osman Efendi - Segah.wav
Pre-gap length 0:00:02.00
Peak level 100.0 %
Extraction speed 3.1 X
Track quality 100.0 %
Test CRC 3F6590DD
Copy CRC 3F6590DD
Accurately ripped (confidence 3) [C831942B] (AR v2)
Copy OK
Track 5
Filename D:\WhatCD\Hijazz Project - Hijazz (2003) [FLAC]\disc 2\05 -Nayi Osman Dede - Saba Peşrevi.wav
Pre-gap length 0:00:02.00
Peak level 100.0 %
Extraction speed 3.5 X
Track quality 100.0 %
Test CRC 3E02DB26
Copy CRC 3E02DB26
Accurately ripped (confidence 3) [24CD590A] (AR v2)
Copy OK
Track 6
Filename D:\WhatCD\Hijazz Project - Hijazz (2003) [FLAC]\disc 2\06 -M. Alper Berksü - Mindos.wav
Pre-gap length 0:00:02.00
Peak level 100.0 %
Extraction speed 3.4 X
Track quality 99.9 %
Test CRC A26D3CDA
Copy CRC A26D3CDA
Accurately ripped (confidence 3) [BD84EA57] (AR v2)
Copy OK
All tracks accurately ripped
No errors occurred
End of status report
---- CUETools DB Plugin V2.1.4
[CTDB TOCID: DxnTizSWussluY1bad0B4ksPJlM-] found
Submit result: DxnTizSWussluY1bad0B4ksPJlM- has been confirmed
Track | CTDB Status
1 | (2/2) Accurately ripped
2 | (2/2) Accurately ripped
3 | (2/2) Accurately ripped
4 | (2/2) Accurately ripped
5 | (2/2) Accurately ripped
6 | (2/2) Accurately ripped
==== Log checksum 17533021364B8CB543FA8199CAA43B99D1DC520A9CF7EF82432E4394CCB63FC4 ====
 
Содержание индексной карты (.CUE):
REM GENRE Jazz
REM DATE 2003
REM DISCID 4A083E06
REM COMMENT "ExactAudioCopy v1.0b3"
PERFORMER "Hijazz Project"
TITLE "Hijazz"
FILE "01 - Birol Yayla, Engin Gürkey - Sohbet-i Visal.wav" WAVE
TRACK 01 AUDIO
TITLE "Sohbet-i Visal"
PERFORMER "Birol Yayla, Engin Gürkey"
FLAGS DCP
INDEX 01 00:00:00
TRACK 02 AUDIO
TITLE "Nikriz Sirto"
PERFORMER "Tamburi Cemil Bey"
FLAGS DCP
INDEX 00 06:43:74
FILE "02 - Tamburi Cemil Bey - Nikriz Sirto.wav" WAVE
INDEX 01 00:00:00
TRACK 03 AUDIO
TITLE "Bab-ı Esrar"
PERFORMER "Birol Yayla"
FLAGS DCP
INDEX 00 07:09:74
FILE "03 - Birol Yayla - Bab-ı Esrar.wav" WAVE
INDEX 01 00:00:00
TRACK 04 AUDIO
TITLE "Segah"
PERFORMER "Tamburi Büyük Osman Efendi"
FLAGS DCP
INDEX 00 05:49:62
FILE "04 - Tamburi Büyük Osman Efendi - Segah.wav" WAVE
INDEX 01 00:00:00
TRACK 05 AUDIO
TITLE "Saba Peşrevi"
PERFORMER "Nayî Osman Dede"
FLAGS DCP
INDEX 00 03:37:25
FILE "05 - Nayî Osman Dede - Saba Peşrevi.wav" WAVE
INDEX 01 00:00:00
TRACK 06 AUDIO
TITLE "Mindos"
PERFORMER "M. Alper Berksü"
FLAGS DCP
INDEX 00 05:46:53
FILE " 06 -M. Alper Berksü - Mindos.wav" WAVE
INDEX 01 00:00:00
 
Лог проверки качества
-----------------------
DON'T MODIFY THIS FILE
-----------------------
PERFORMER: auCDtect Task Manager, ver. 1.6.0 RC1 build 1.6.0.1
Copyright (c) 2008-2010 y-soft. All rights reserved
http://y-soft.org
ANALYZER: auCDtect: CD records authenticity detector, version 0.8.2
Copyright (c) 2004 Oleg Berngardt. All rights reserved.
Copyright (c) 2004 Alexander Djourik. All rights reserved.
FILE: 06 - M. Alper Berksü - Mindos.flac
Size: 34655515 Hash: A07D8201F661142D63B09008F30437FD Accuracy: -m0
Conclusion: CDDA 99%
Signature: 171C35ACA23940FBAB04567767D523D2D1183882
FILE: 05 - Nayî Osman Dede - Saba Peşrevi.flac
Size: 35220725 Hash: 00D804013B21EB374DDE011C6012520E Accuracy: -m0
Conclusion: CDDA 100%
Signature: 57C93860E84F1C41C13021F3E92ADE7336B96B95
FILE: 04 - Tamburi Büyük Osman Efendi - Segah.flac
Size: 23779427 Hash: B475E0DBBDF9EE1F8D09BFC360C63AB2 Accuracy: -m0
Conclusion: CDDA 100%
Signature: 8431D86C3531FCA0D7AABF6800AA467E052C0972
FILE: 03 - Birol Yayla - Bab-ı Esrar.flac
Size: 36050817 Hash: 15432408F2E9178514CAB8ECC49C7FF7 Accuracy: -m0
Conclusion: CDDA 100%
Signature: 00EBAE0604C4253615A1C78272776091DD01A929
FILE: 02 - Tamburi Cemil Bey - Nikriz Sirto.flac
Size: 45575848 Hash: F26AC27B9747010C7B20AA03CE789F6D Accuracy: -m0
Conclusion: CDDA 100%
Signature: 989DB4A7010290343A31D395099C5F5503B014F6
FILE: 01 - Birol Yayla, Engin Gürkey - Sohbet-i Visal.flac
Size: 42573358 Hash: 668EEF1062A5E439A268E58811D6BCFC Accuracy: -m0
Conclusion: CDDA 100%
Signature: 1590EC23B77C0E9D942930C823F2F0EFFEFB4759
 
Замер динамического диапазона
foobar2000 1.3.10 / Замер динамического диапазона (DR) 1.1.1
Дата отчёта: 2017-06-19 16:32:09
--------------------------------------------------------------------------------
Анализ: Birol Yayla, Engin Gürkey / Hijazz (1)
Birol Yayla / Hijazz (2)
M. Alper Berksü / Hijazz (3)
Nayi Osman Dede / Hijazz (4)
Tamburi Büyük Osman Efendi / Hijazz (5)
Tamburi Cemil Bey / Hijazz (6)
--------------------------------------------------------------------------------
DR Пики RMS Продолжительность трека
--------------------------------------------------------------------------------
DR13 0.00 дБ -16.01 дБ 6:46 01-Sohbet-i Visal
DR11 -0.38 дБ -16.08 дБ 5:52 03-Bab-ı Esrar
DR17 0.00 дБ -20.08 дБ 5:53 06-Mindos
DR14 0.00 дБ -17.74 дБ 5:49 05-Saba Peşrevi
DR9 0.00 дБ -12.09 дБ 3:39 04-Segah
DR12 0.00 дБ -13.79 дБ 7:12 02-Nikriz Sirto
--------------------------------------------------------------------------------
Количество треков: 6
Реальные значения DR: DR13
Частота: 44100 Гц
Каналов: 2
Разрядность: 16
Битрейт: 844 кбит/с
Кодек: FLAC
================================================================================
 
Матрица

 
Back
 
Об альбоме (сборнике):
Hijazz Project is a gathering place of the most famous musicians in Turkey. Each one individually has their own bands and personal projects, play in different festivals, working in different productions. Hijazz Project for them, is a way to surrender their togetherness in this music of synthesis they make hand in hand, without any ego, matching to the idea of Mevlana and Sufism. They play from Hamamizade Ismail Dede Efendi to W.A.Mozart... from Hasselman to Nayi Osman Dede.. from J.S.Bach to Tamburi Cemil Bey.. mixed with the jazzy mood, powered by Budapest Symphonical Orchestra conducted by Alparslan Ertungaalp. HiJazz Project's first concert was supported by Turkiye Is Bankasi in 2003. in 2007 the band is supported by Arif Mardin (R.I.P), who had great effort for Hijazz Project to perform in the Istanbul Jazz Festival. He made it but passed away on the concert day. So we dedicate our 2007 Istanbul Jazz Festival performance to his loving memory. He was the only music producer in the world who made the world a better place.
 
Состав
1. Hijazz - tanbur [tambur]: Birol Yayla; trumpet: Şenova Ülker; drums: Volkan Öktem; guitar: Ercüment Ateş; bass: Eylem Pelit; ney: Aziz Şenol Filiz and Ercan Irmak; kanun: Taner Sayacıoğlu; percussion: Engin Gürkey; keyboard: M. Alper Berksü and Artun Sürmeli; vocals: Ayla Bursa Berksü;
2. Türkü - tanbur [tambur]: Birol Yayla; drums: Volkan Öktem; guitar: Ercüment Ateş; bass: Eylem Pelit; ney: Aziz Şenol Filiz; percussion: Engin Gürkey; keyboard: M. Alper Berksü and Artun Sürmeli
3. Lom / Pavane - trumpet: Şenova Ülker; drums: Volkan Öktem; guitar: Ercüment Ateş; bass: Eylem Pelit; ney: Ercan Irmak; percussion: Engin Gürkey; keyboard: M. Alper Berksü and Artun Sürmeli
4. Alfo La Source - harp: Fatmagül Ergün Keşkek
5. Air - harp: Fatmagül Ergün Keşkek; vocals: Ayla Bursa Berksü
6. La U Date Dominum - ney: Aziz Şenol Filiz; soprano vocals: Ayla Bursa Berksü
7. Yüzündür Cihanı - tanbur [tambur]: Birol Yayla; acoustic fretless guitar: Erkan Oğur; ney: Aziz Şenol Filiz and Ercan Irmak; kanun: Taner Sayacıoğlu; percussion: Engin Gürkey; piano: M. Alper Berksü; harp: Fatmagül Ergün Keşkek; solo vocals: Ayla Bursa Berksü
CD 2
1. Sohbet-i Visal - tanbur [tambur]: Birol Yayla; trumpet: Şenova Ülker; drums: Volkan Öktem; guitar: Ercüment Ateş; bass: Eylem Pelit; ney: Aziz Şenol Filiz and Artun Sürmeli; percussion: Engin Gürkey; keyboard: M. Alper Berksü; flugelhorn: Şenova Ülker
2. Nikriz Sirto - trumpet: Şenova Ülker; drums: Volkan Öktem; guitar: Ercüment Ateş; bass: Eylem Pelit; kanun: Taner Sayacıoğlu; percussion: Engin Gürkey; keyboard: M. Alper Berksü and Artun Sürmeli
3. Bab-ı Esrar - guitar: Birol Yayla; ney: Aziz Şenol Filiz; percussion: Engin Gürkey; keyboard: M. Alper Berksü; vocals: Aziz Şenol Filiz
4. Segah - tanbur [tambur]: Birol Yayla; ney: Aziz Şenol Filiz and Ercan Irmak; percussion: Engin Gürkey; programming: Emre Önbayraktar; vocals: Ayla Bursa Berksü
5. Saba Peşrevi - tanbur [tambur]: Birol Yayla; acoustic fretless guitar: Erkan Oğur; ney: Aziz Şenol Filiz and Ercan Irmak; keyboard: M. Alper Berksü; other vocals [Kasidehan]: Mehmet Kemiksiz
6. Mindos - acoustic fretless guitar: Erkan Oğur; electric piano: M. Alper Berksü; keyboard: Artun Sürmeli; vocals: Ayla Bursa Berksü

01:23
318
Нет комментариев. Ваш будет первым!