Поиск

(Funk/Soul/Pop) [CD] Thelma Jones - Thelma Jones - 1978, FLAC (image+.cue), lossless

(Funk/Soul/Pop) [CD] Thelma Jones - Thelma Jones - 1978, FLAC (image+.cue), lossless
Треклист:
Thelma Jones / Thelma Jones (1978)
Жанр: Funk/Soul/Pop
Носитель: CD
Страна-производитель диска (релиза): EU
Год издания: 2012
Издатель (лейбл): Big Break Records
Номер по каталогу: CDBBR 0106
Страна исполнителя (группы): USA
Аудиокодек: FLAC (*.flac)
Тип рипа: image+.cue
Битрейт аудио: lossless
Продолжительность: 00:49:43
Источник (релизер): Рип от BlondStyle
Наличие сканов в содержимом раздачи: да
Треклист:
01 I Second That Emotion
02 Lonely Enough To Try Anything
03 Now That We’ve Found Love
04 Angel Of The Morning
05 I Can Dream
06 How Long
07 Stay Awhile With Me
08 I'd Rather Leave While I'm in Love
09 I Want What You Want
10 Salty Tears
Bonus Tracks:
11 You're The Song (That I Can't Stop Singing)
12 Love, Look What You Got Me Into
13 I Second That Emotion (Single Version)
 
Лог создания рипа
Exact Audio Copy V1.0 beta 3 from 29. August 2011
EAC extraction logfile from 27. August 2014, 21:25
Thelma Jones / Thelma Jones
Used drive : ATAPI DVD DW 8X16X8X16 Adapter: 0 ID: 2
Read mode : Secure
Utilize accurate stream : Yes
Defeat audio cache : Yes
Make use of C2 pointers : No
Read offset correction : 618
Overread into Lead-In and Lead-Out : No
Fill up missing offset samples with silence : Yes
Delete leading and trailing silent blocks : No
Null samples used in CRC calculations : Yes
Used interface : Native Win32 interface for Win NT & 2000
Used output format : Internal WAV Routines
Sample format : 44.100 Hz; 16 Bit; Stereo
TOC of the extracted CD
Track | Start | Length | Start sector | End sector
---------------------------------------------------------
1 | 0:00.00 | 3:56.60 | 0 | 17759
2 | 3:56.60 | 3:29.67 | 17760 | 33501
3 | 7:26.52 | 4:55.34 | 33502 | 55660
4 | 12:22.11 | 3:58.15 | 55661 | 73525
5 | 16:20.26 | 3:55.24 | 73526 | 91174
6 | 20:15.50 | 3:29.23 | 91175 | 106872
7 | 23:44.73 | 4:24.37 | 106873 | 126709
8 | 28:09.35 | 3:50.16 | 126710 | 143975
9 | 31:59.51 | 4:10.19 | 143976 | 162744
10 | 36:09.70 | 3:38.54 | 162745 | 179148
11 | 39:48.49 | 2:48.13 | 179149 | 191761
12 | 42:36.62 | 3:38.22 | 191762 | 208133
13 | 46:15.09 | 3:27.56 | 208134 | 223714
Range status and errors
Selected range
Filename C:\BlondStyle\Thelma Jones - Thelma Jones.wav
Peak level 96.6 %
Extraction speed 7.6 X
Range quality 100.0 %
Test CRC 64F6A5A0
Copy CRC 64F6A5A0
Copy OK
No errors occurred
AccurateRip summary
Track 1 accurately ripped (confidence 2) [DFF83161] (AR v2)
Track 2 accurately ripped (confidence 2) [06770AFD] (AR v2)
Track 3 accurately ripped (confidence 2) [9287148E] (AR v2)
Track 4 accurately ripped (confidence 2) [47FAEB68] (AR v2)
Track 5 accurately ripped (confidence 2) [EC972C54] (AR v2)
Track 6 accurately ripped (confidence 2) [B8D7B596] (AR v2)
Track 7 accurately ripped (confidence 2) [5B5367EF] (AR v2)
Track 8 accurately ripped (confidence 2) [5431654A] (AR v2)
Track 9 accurately ripped (confidence 2) [AE5BAF4F] (AR v2)
Track 10 accurately ripped (confidence 2) [DF830032] (AR v2)
Track 11 accurately ripped (confidence 2) [D0B6068E] (AR v2)
Track 12 accurately ripped (confidence 2) [D503FD70] (AR v2)
Track 13 accurately ripped (confidence 2) [8739F676] (AR v2)
All tracks accurately ripped
End of status report
==== Log checksum 1D29E42C0FCAE0BFE4B9F66E7B95C0CC3D2DF6CD4693262E824C7B7DB4E906E8 ====
 
Содержание индексной карты (.CUE)
REM GENRE "R&B, Soul/Funk, Disco"
REM DATE 2012
REM DISCID BB0BA60D
REM COMMENT "ExactAudioCopy v1.0b3"
PERFORMER "Thelma Jones"
TITLE "Thelma Jones"
FILE "Thelma Jones - Thelma Jones.flac" WAVE
TRACK 01 AUDIO
TITLE "I Second That Emotion"
PERFORMER "Thelma Jones"
INDEX 01 00:00:00
TRACK 02 AUDIO
TITLE "Lonely Enough To Try Anything"
PERFORMER "Thelma Jones"
FLAGS DCP
INDEX 01 03:56:60
TRACK 03 AUDIO
TITLE "Now That We've Found Love"
PERFORMER "Thelma Jones"
FLAGS DCP
INDEX 00 07:24:54
INDEX 01 07:26:52
TRACK 04 AUDIO
TITLE "Angel Of The Morning"
PERFORMER "Thelma Jones"
FLAGS DCP
INDEX 00 12:20:13
INDEX 01 12:22:11
TRACK 05 AUDIO
TITLE "I Can Dream"
PERFORMER "Thelma Jones"
FLAGS DCP
INDEX 00 16:18:29
INDEX 01 16:20:26
TRACK 06 AUDIO
TITLE "How Long"
PERFORMER "Thelma Jones"
FLAGS DCP
INDEX 00 20:13:52
INDEX 01 20:15:50
TRACK 07 AUDIO
TITLE "Stay Awhile With Me"
PERFORMER "Thelma Jones"
FLAGS DCP
INDEX 00 23:43:00
INDEX 01 23:44:73
TRACK 08 AUDIO
TITLE "I'd Rather Leave While I'm In Love"
PERFORMER "Thelma Jones"
FLAGS DCP
INDEX 00 28:07:37
INDEX 01 28:09:35
TRACK 09 AUDIO
TITLE "I Want What You Want"
PERFORMER "Thelma Jones"
FLAGS DCP
INDEX 00 31:57:53
INDEX 01 31:59:51
TRACK 10 AUDIO
TITLE "Salty Tears"
PERFORMER "Thelma Jones"
FLAGS DCP
INDEX 00 36:07:72
INDEX 01 36:09:70
TRACK 11 AUDIO
TITLE "You're The Song (That I Can't Stop Singing) (Bonus Track)"
PERFORMER "Thelma Jones"
FLAGS DCP
INDEX 00 39:44:51
INDEX 01 39:48:49
TRACK 12 AUDIO
TITLE "Love, Look What You Got Me Into (Bonus Track)"
PERFORMER "Thelma Jones"
FLAGS DCP
INDEX 00 42:34:64
INDEX 01 42:36:62
TRACK 13 AUDIO
TITLE "I Second That Emotion (Single Version) (Bonus Track)"
PERFORMER "Thelma Jones"
FLAGS DCP
INDEX 00 46:13:11
INDEX 01 46:15:09
 
Об исполнителе (группе)
Ещё ребёнком Thelma Jones начала петь в семейной госпел-группе The McDaniel Singers. Песни "Little David Play On Your Harp" и "God Put A Rainbow In The Sky" с лид-вокалом Тельмы были двумя первыми записями, выпущенными в то время. Позже Jones из госпел-певиц перешла на территорию R&B-музыки, записав для лэйбла Barry Records оригинальную версию "The House That Jack Built" (раньше Ареты Франклин), наряду с треками "Mr. Fix It", "Souvenirs Of A Heartbreak" и "Oh, Here Come The Heartbreak". Её последующим релизом была сингловая "Salty Tears", - великолепная баллада, которая по-настоящему поставила имя Thelma Jones на карту шоу-бизнеса. Названный по имени исполнительницы полноценный дебютный альбом "Thelma Jones" был выпущен на лэйбле Columbia в 1978 году. Он содержал замечательную песню, написанную Smokey Robinson'ом "I Second That Emotion", выпущенную как сингл. В 2005 году альбом был ремастирован и впервые выпущен на CD. А в марте 2012 года, лэйбл Big Break Records переиздал его, дополнив 3-мя бонусными треками, сотсоящими из синглов 1976 и 1978 гг
Приватный:
Нет (DHT включён)
Размер:
349.25 Мб (366,214,228 байт) » файлов: 16
Участники:
0 раздают, 0 качают (0 участников всего)
Внешние участники:
1 раздают, 0 качают (1 участников всего) [ Обновить ]
Есть вопросы - пишите личное сообщение пользователю M0p94ok.
04:18
70
Нет комментариев. Ваш будет первым!