Поиск

(Funk, P-Funk) [CD] Funkadelic - First Ya Gotta Shake The Gate (3CD) - 2014, FLAC (tracks+.cue), lossless

(Funk, P-Funk) [CD] Funkadelic - First Ya Gotta Shake The Gate (3CD) - 2014, FLAC (tracks+.cue), lossless
Треклист:
Funkadelic / First Ya Gotta Shake The Gate (3CD)
Жанр: Funk, P-Funk
Носитель: CD
Страна-производитель диска (релиза): US
Год издания: 2014
Издатель (лейбл): The C Kunspyruhzy
Номер по каталогу: CKY003
Страна исполнителя (группы): US
Аудиокодек: FLAC (*.flac)
Тип рипа: tracks+.cue
Битрейт аудио: lossless
Продолжительность: 03:27:49
Источник (релизер): waffles.fm
Наличие сканов в содержимом раздачи:
Треклист:
 
CD1
1-01 Baby Like Fonkin' It Up
1-02 Get Low
1-03 If I Didn't Love You
1-04 Fucked Up
1-05 Ain't That Funkin' Kinda Hard on You?
1-06 I Mo B Yodog Fo Eva
1-07 In Da Kar
1-08 Radio Friendly
1-09 Mathematics Of Love
1-10 Creases
1-11 Not Your Average Rapper
 
CD2
2-01 First Ya Gotta Shake The Gate
2-02 Roller Rink
2-03 Jolene
2-04 Nuclear Dog, Pt. II
2-05 Dirty Queen
2-06 You Can't Unring The Bell
2-07 Old Fool
2-08 Pole Power
2-09 Boom There We Go Again
2-10 As In
2-11 Bernadette
2-12 Meow Meow
 
CD3
3-01 Catchin' Boogie Fever 5:57
3-02 The Naz 5:38
3-03 Talking to the Wall 4:44
3-04 Where Would I Go? 4:27
3-05 Yesterdejavu 7:57
3-06 Zip It 3:36
3-07 The Wall 9:10
3-08 Snot n' Booger 10:45
3-09 Yellow Light 4:34
3-10 Dipety Dipety Doo Stop The Violence 5:14
 
Лог создания рипа
 
CD1
Exact Audio Copy V1.0 beta 3 from 29. August 2011
EAC extraction logfile from 9. February 2015, 3:22
Funkadelic / first ya gotta SHAKE THE GATE
Used drive : PHILIPS DVD+-RW DVD8881 Adapter: 3 ID: 0
Read mode : Secure
Utilize accurate stream : Yes
Defeat audio cache : Yes
Make use of C2 pointers : No
Read offset correction : 618
Overread into Lead-In and Lead-Out : No
Fill up missing offset samples with silence : Yes
Delete leading and trailing silent blocks : No
Null samples used in CRC calculations : Yes
Used interface : Native Win32 interface for Win NT & 2000
Gap handling : Appended to previous track
Used output format : User Defined Encoder
Selected bitrate : 1024 kBit/s
Quality : High
Add ID3 tag : No
Command line compressor : C:\Program Files (x86)\Exact Audio Copy\Flac\flac.exe
Additional command line options : -8 -V -T "ARTIST=%artist%" -T "TITLE=%title%" -T "ALBUM=%albumtitle%" -T "DATE=%year%" -T "TRACKNUMBER=%tracknr%" -T "GENRE=%genre%" -T "PERFORMER=%albuminterpret%" -T "COMPOSER=%composer%" %haslyrics%--tag-from-file=LYRICS="%lyricsfile%"%haslyrics% -T "ALBUMARTIST=%albumartist%" -T "DISCNUMBER=%cdnumber%" -T "TOTALDISCS=%totalcds%" -T "TOTALTRACKS=%numtracks%" -T "COMMENT=%comment%" %source% -o %dest%
TOC of the extracted CD
Track | Start | Length | Start sector | End sector
---------------------------------------------------------
1 | 0:00.00 | 9:36.66 | 0 | 43265
2 | 9:36.66 | 5:44.16 | 43266 | 69081
3 | 15:21.07 | 4:00.40 | 69082 | 87121
4 | 19:21.47 | 7:43.25 | 87122 | 121871
5 | 27:04.72 | 5:30.02 | 121872 | 146623
6 | 32:34.74 | 5:13.56 | 146624 | 170154
7 | 37:48.55 | 8:49.67 | 170155 | 209896
8 | 46:38.47 | 6:16.51 | 209897 | 238147
9 | 52:55.23 | 12:09.39 | 238148 | 292861
10 | 65:04.62 | 3:10.72 | 292862 | 307183
11 | 68:15.59 | 3:17.04 | 307184 | 321962
Track 1
Filename C:\EACrips\01 - Baby Like Fonkin' it Up.wav
Pre-gap length 0:00:02.00
Peak level 99.3 %
Extraction speed 6.1 X
Track quality 100.0 %
Test CRC A4A3E231
Copy CRC A4A3E231
Accurately ripped (confidence 2) [EC688C0C] (AR v2)
Copy OK
Track 2
Filename C:\EACrips\02 - Get Low.wav
Pre-gap length 0:00:00.30
Peak level 96.5 %
Extraction speed 6.8 X
Track quality 100.0 %
Test CRC DF9FB576
Copy CRC DF9FB576
Accurately ripped (confidence 2) [2873352D] (AR v2)
Copy OK
Track 3
Filename C:\EACrips\03 - If I Didn't Love You.wav
Pre-gap length 0:00:00.32
Peak level 99.3 %
Extraction speed 6.9 X
Track quality 100.0 %
Test CRC 71002205
Copy CRC 71002205
Accurately ripped (confidence 2) [D20684D5] (AR v2)
Copy OK
Track 4
Filename C:\EACrips\04 - Fucked Up.wav
Pre-gap length 0:00:00.29
Peak level 99.3 %
Extraction speed 8.0 X
Track quality 100.0 %
Test CRC 07C1E04A
Copy CRC 07C1E04A
Accurately ripped (confidence 2) [4D3BE6DA] (AR v2)
Copy OK
Track 5
Filename C:\EACrips\05 - Ain't that Funkin' kinda Hard on You.wav
Peak level 96.5 %
Extraction speed 7.2 X
Track quality 99.9 %
Test CRC D4E5F52E
Copy CRC D4E5F52E
Accurately ripped (confidence 2) [EDF705F6] (AR v2)
Copy OK
Track 6
Filename C:\EACrips\06 - I Mo B Yodog Fo Eva.wav
Pre-gap length 0:00:00.01
Peak level 98.8 %
Extraction speed 7.5 X
Track quality 99.9 %
Test CRC A90D12CA
Copy CRC A90D12CA
Accurately ripped (confidence 2) [C6B6570C] (AR v2)
Copy OK
Track 7
Filename C:\EACrips\07 - In Da Kar.wav
Pre-gap length 0:00:00.01
Peak level 99.1 %
Extraction speed 8.8 X
Track quality 99.9 %
Test CRC C6BE97C3
Copy CRC C6BE97C3
Accurately ripped (confidence 2) [393D0CF2] (AR v2)
Copy OK
Track 8
Filename C:\EACrips\08 - Radio Friendly.wav
Peak level 99.3 %
Extraction speed 9.8 X
Track quality 100.0 %
Test CRC 3EE49BDA
Copy CRC 3EE49BDA
Accurately ripped (confidence 2) [97BC3FF8] (AR v2)
Copy OK
Track 9
Filename C:\EACrips\09 - Mathematics of Love.wav
Pre-gap length 0:00:00.41
Peak level 99.1 %
Extraction speed 10.9 X
Track quality 100.0 %
Test CRC 1A565889
Copy CRC 1A565889
Accurately ripped (confidence 2) [4C665CE7] (AR v2)
Copy OK
Track 10
Filename C:\EACrips\10 - Creases.wav
Peak level 99.3 %
Extraction speed 9.9 X
Track quality 100.0 %
Test CRC 450BFB12
Copy CRC 450BFB12
Accurately ripped (confidence 2) [7F5BB5E5] (AR v2)
Copy OK
Track 11
Filename C:\EACrips\11 - Not Your Average Rapper.wav
Pre-gap length 0:00:00.89
Peak level 99.3 %
Extraction speed 10.1 X
Track quality 100.0 %
Test CRC B713D04D
Copy CRC B713D04D
Accurately ripped (confidence 2) [7E048F55] (AR v2)
Copy OK
All tracks accurately ripped
No errors occurred
End of status report
---- CUETools DB Plugin V2.1.3
[CTDB TOCID: RKyrGfCvv1LTcCSJxn8y6eDJsgU-] found, Submit result: RKyrGfCvv1LTcCSJxn8y6eDJsgU- has been confirmed
[e8a6c02b] (4/4) Accurately ripped
==== Log checksum 84370F17663C21CD59EAB33BFDF0B265A0CE04FED7510FEBBBFB0C4ACC5ADE50 ====
 
CD2
Exact Audio Copy V1.0 beta 3 from 29. August 2011
EAC extraction logfile from 9. February 2015, 4:02
Funkadelic / first ya gotta SHAKE THE GATE
Used drive : PHILIPS DVD+-RW DVD8881 Adapter: 3 ID: 0
Read mode : Secure
Utilize accurate stream : Yes
Defeat audio cache : Yes
Make use of C2 pointers : No
Read offset correction : 618
Overread into Lead-In and Lead-Out : No
Fill up missing offset samples with silence : Yes
Delete leading and trailing silent blocks : No
Null samples used in CRC calculations : Yes
Used interface : Native Win32 interface for Win NT & 2000
Gap handling : Appended to previous track
Used output format : User Defined Encoder
Selected bitrate : 1024 kBit/s
Quality : High
Add ID3 tag : No
Command line compressor : C:\Program Files (x86)\Exact Audio Copy\Flac\flac.exe
Additional command line options : -8 -V -T "ARTIST=%artist%" -T "TITLE=%title%" -T "ALBUM=%albumtitle%" -T "DATE=%year%" -T "TRACKNUMBER=%tracknr%" -T "GENRE=%genre%" -T "PERFORMER=%albuminterpret%" -T "COMPOSER=%composer%" %haslyrics%--tag-from-file=LYRICS="%lyricsfile%"%haslyrics% -T "ALBUMARTIST=%albumartist%" -T "DISCNUMBER=%cdnumber%" -T "TOTALDISCS=%totalcds%" -T "TOTALTRACKS=%numtracks%" -T "COMMENT=%comment%" %source% -o %dest%
TOC of the extracted CD
Track | Start | Length | Start sector | End sector
---------------------------------------------------------
1 | 0:00.00 | 9:05.74 | 0 | 40948
2 | 9:05.74 | 11:34.11 | 40949 | 93009
3 | 20:40.10 | 7:51.66 | 93010 | 128400
4 | 28:32.01 | 6:42.17 | 128401 | 158567
5 | 35:14.18 | 3:45.08 | 158568 | 175450
6 | 38:59.26 | 3:00.50 | 175451 | 189000
7 | 42:00.01 | 3:33.16 | 189001 | 204991
8 | 45:33.17 | 7:01.35 | 204992 | 236601
9 | 52:34.52 | 2:55.73 | 236602 | 249799
10 | 55:30.50 | 6:49.35 | 249800 | 280509
11 | 62:20.10 | 5:09.31 | 280510 | 303715
12 | 67:29.41 | 6:45.71 | 303716 | 334161
Track 1
Filename C:\EACrips\01 - first ya gotta Shake the Gate.wav
Pre-gap length 0:00:02.00
Peak level 99.3 %
Extraction speed 5.6 X
Track quality 100.0 %
Test CRC 9B3A4E54
Copy CRC 9B3A4E54
Accurately ripped (confidence 2) [89597E50] (AR v2)
Copy OK
Track 2
Filename C:\EACrips\02 - Roller Rink.wav
Peak level 99.2 %
Extraction speed 6.8 X
Track quality 100.0 %
Test CRC CA9DC3C6
Copy CRC CA9DC3C6
Accurately ripped (confidence 2) [5A291376] (AR v2)
Copy OK
Track 3
Filename C:\EACrips\03 - Jolene.wav
Pre-gap length 0:00:00.24
Peak level 99.0 %
Extraction speed 7.4 X
Track quality 100.0 %
Test CRC AF5D3348
Copy CRC AF5D3348
Accurately ripped (confidence 2) [D9F450F9] (AR v2)
Copy OK
Track 4
Filename C:\EACrips\04 - Nuclear Dog Part II.wav
Peak level 99.3 %
Extraction speed 7.8 X
Track quality 100.0 %
Test CRC 4B6501EF
Copy CRC 4B6501EF
Accurately ripped (confidence 2) [0CE3FFBE] (AR v2)
Copy OK
Track 5
Filename C:\EACrips\05 - Dirty Queen.wav
Peak level 99.3 %
Extraction speed 6.6 X
Track quality 99.9 %
Test CRC 4840E631
Copy CRC 4840E631
Accurately ripped (confidence 2) [5702C27D] (AR v2)
Copy OK
Track 6
Filename C:\EACrips\06 - You Can't Unring the Bell.wav
Pre-gap length 0:00:00.16
Peak level 99.3 %
Extraction speed 7.5 X
Track quality 100.0 %
Test CRC 400F65E2
Copy CRC 400F65E2
Accurately ripped (confidence 2) [3360597A] (AR v2)
Copy OK
Track 7
Filename C:\EACrips\07 - Old Fool.wav
Peak level 97.4 %
Extraction speed 7.9 X
Track quality 100.0 %
Test CRC 5915D00C
Copy CRC 5915D00C
Accurately ripped (confidence 2) [AADC1FE7] (AR v2)
Copy OK
Track 8
Filename C:\EACrips\08 - Pole Power.wav
Peak level 99.3 %
Extraction speed 8.9 X
Track quality 100.0 %
Test CRC 66B0AFE0
Copy CRC 66B0AFE0
Accurately ripped (confidence 2) [BA7791E0] (AR v2)
Copy OK
Track 9
Filename C:\EACrips\09 - Boom There We go Again.wav
Pre-gap length 0:00:00.12
Peak level 98.4 %
Extraction speed 6.9 X
Track quality 99.9 %
Test CRC D98138DE
Copy CRC D98138DE
Accurately ripped (confidence 2) [55D3EF30] (AR v2)
Copy OK
Track 10
Filename C:\EACrips\10 - As In.wav
Pre-gap length 0:00:00.37
Peak level 99.3 %
Extraction speed 9.3 X
Track quality 100.0 %
Test CRC 41AF2568
Copy CRC 41AF2568
Accurately ripped (confidence 2) [806E615D] (AR v2)
Copy OK
Track 11
Filename C:\EACrips\11 - Bernadette.wav
Pre-gap length 0:00:00.08
Peak level 96.9 %
Extraction speed 8.4 X
Track quality 99.9 %
Test CRC A997A526
Copy CRC A997A526
Accurately ripped (confidence 2) [E2F6BB8D] (AR v2)
Copy OK
Track 12
Filename C:\EACrips\12 - Meow Meow.wav
Peak level 99.3 %
Extraction speed 9.7 X
Track quality 100.0 %
Test CRC E6EDDA50
Copy CRC E6EDDA50
Accurately ripped (confidence 2) [D27BB090] (AR v2)
Copy OK
All tracks accurately ripped
No errors occurred
End of status report
---- CUETools DB Plugin V2.1.3
[CTDB TOCID: 6887K7xpj7e97EiM5BFlinPTkSI-] found, Submit result: 6887K7xpj7e97EiM5BFlinPTkSI- has been confirmed
[5ffdd17c] (2/3) Accurately ripped
[0dde09ce] (1/3) Differs in 19 samples @74:15:13
You can use CUETools to repair this rip.
==== Log checksum F85FE6E54BE07896AFD80CFCD1705745220A2D67288FEF2663C7F3DA80B4BCA4 ====
 
CD3
Exact Audio Copy V1.0 beta 3 from 29. August 2011
EAC extraction logfile from 9. February 2015, 5:32
Funkadelic / first ya gotta SHAKE THE GATE
Used drive : PHILIPS DVD+-RW DVD8881 Adapter: 3 ID: 0
Read mode : Secure
Utilize accurate stream : Yes
Defeat audio cache : Yes
Make use of C2 pointers : No
Read offset correction : 618
Overread into Lead-In and Lead-Out : No
Fill up missing offset samples with silence : Yes
Delete leading and trailing silent blocks : No
Null samples used in CRC calculations : Yes
Used interface : Native Win32 interface for Win NT & 2000
Gap handling : Appended to previous track
Used output format : User Defined Encoder
Selected bitrate : 1024 kBit/s
Quality : High
Add ID3 tag : No
Command line compressor : C:\Program Files (x86)\Exact Audio Copy\Flac\flac.exe
Additional command line options : -8 -V -T "ARTIST=%artist%" -T "TITLE=%title%" -T "ALBUM=%albumtitle%" -T "DATE=%year%" -T "TRACKNUMBER=%tracknr%" -T "GENRE=%genre%" -T "PERFORMER=%albuminterpret%" -T "COMPOSER=%composer%" %haslyrics%--tag-from-file=LYRICS="%lyricsfile%"%haslyrics% -T "ALBUMARTIST=%albumartist%" -T "DISCNUMBER=%cdnumber%" -T "TOTALDISCS=%totalcds%" -T "TOTALTRACKS=%numtracks%" -T "COMMENT=%comment%" %source% -o %dest%
TOC of the extracted CD
Track | Start | Length | Start sector | End sector
---------------------------------------------------------
1 | 0:00.00 | 5:57.02 | 0 | 26776
2 | 5:57.02 | 5:38.25 | 26777 | 52151
3 | 11:35.27 | 4:44.00 | 52152 | 73451
4 | 16:19.27 | 4:26.67 | 73452 | 93468
5 | 20:46.19 | 7:56.61 | 93469 | 129229
6 | 28:43.05 | 3:35.68 | 129230 | 145422
7 | 32:18.73 | 9:09.55 | 145423 | 186652
8 | 41:28.53 | 10:44.56 | 186653 | 235008
9 | 52:13.34 | 4:34.28 | 235009 | 255586
10 | 56:47.62 | 5:13.42 | 255587 | 279103
Track 1
Filename C:\EACrips\01 - Catchin' Boogie Fever.wav
Pre-gap length 0:00:02.00
Peak level 99.3 %
Extraction speed 1.4 X
Track quality 100.0 %
Test CRC 7C0A0178
Copy CRC 7C0A0178
Accurately ripped (confidence 2) [89CE7D89] (AR v2)
Copy OK
Track 2
Filename C:\EACrips\02 - The Naz.wav
Peak level 99.3 %
Extraction speed 1.4 X
Track quality 99.9 %
Test CRC EC261AF8
Copy CRC EC261AF8
Accurately ripped (confidence 2) [BC61EE32] (AR v2)
Copy OK
Track 3
Filename C:\EACrips\03 - Talking to The Wall.wav
Peak level 99.3 %
Extraction speed 1.7 X
Track quality 100.0 %
Test CRC F7650934
Copy CRC F7650934
Accurately ripped (confidence 2) [73203460] (AR v2)
Copy OK
Track 4
Filename C:\EACrips\04 - Where Would I Go.wav
Pre-gap length 0:00:00.68
Peak level 99.3 %
Extraction speed 1.6 X
Track quality 99.9 %
Test CRC 3A08CEED
Copy CRC 3A08CEED
Accurately ripped (confidence 2) [D214C581] (AR v2)
Copy OK
Track 5
Filename C:\EACrips\05 - Yesterdejavu.wav
Pre-gap length 0:00:00.54
Peak level 99.3 %
Extraction speed 2.1 X
Track quality 100.0 %
Test CRC CCC23E1C
Copy CRC CCC23E1C
Accurately ripped (confidence 2) [AE6627E4] (AR v2)
Copy OK
Track 6
Filename C:\EACrips\06 - Zip It.wav
Pre-gap length 0:00:00.05
Peak level 92.9 %
Extraction speed 2.1 X
Track quality 100.0 %
Test CRC D1733A8E
Copy CRC D1733A8E
Accurately ripped (confidence 2) [FCADBAF3] (AR v2)
Copy OK
Track 7
Filename C:\EACrips\07 - The Wall.wav
Pre-gap length 0:00:00.52
Peak level 99.3 %
Extraction speed 2.4 X
Track quality 100.0 %
Test CRC 18EF06E3
Copy CRC 18EF06E3
Accurately ripped (confidence 2) [FDB7B703] (AR v2)
Copy OK
Track 8
Filename C:\EACrips\08 - Snot n' Booger.wav
Pre-gap length 0:00:00.02
Peak level 99.3 %
Extraction speed 2.5 X
Track quality 99.9 %
Test CRC D26C1FBF
Copy CRC D26C1FBF
Accurately ripped (confidence 2) [D490F342] (AR v2)
Copy OK
Track 9
Filename C:\EACrips\09 - Yellow Light.wav
Pre-gap length 0:00:00.04
Peak level 99.3 %
Extraction speed 2.6 X
Track quality 100.0 %
Test CRC 8B267492
Copy CRC 8B267492
Accurately ripped (confidence 2) [46B08940] (AR v2)
Copy OK
Track 10
Filename C:\EACrips\10 - Dipety Dipety Doo Stop the Violence.wav
Pre-gap length 0:00:00.14
Peak level 96.3 %
Extraction speed 2.7 X
Track quality 100.0 %
Test CRC 9B25E43E
Copy CRC 9B25E43E
Accurately ripped (confidence 2) [72DDB30B] (AR v2)
Copy OK
All tracks accurately ripped
No errors occurred
End of status report
---- CUETools DB Plugin V2.1.3
[CTDB TOCID: RI0zejAsGIIWRM.pVdkk5NS5Lsk-] found, Submit result: RI0zejAsGIIWRM.pVdkk5NS5Lsk- has been confirmed
[949d2046] (2/2) Accurately ripped
==== Log checksum 502CBB556BE368EE1E38E429691939B4F6FF7A93E8D3909934A9817FBEBB0D2E ====
 
Содержание индексной карты (.CUE)
 
CD1
REM GENRE Funk
REM DATE 2014
REM DISCID A010C40B
REM COMMENT "ExactAudioCopy v1.0b3"
CATALOG 0887158997624
PERFORMER "Funkadelic"
TITLE "first ya gotta SHAKE THE GATE"
FILE "01 - Baby Like Fonkin' it Up.wav" WAVE
TRACK 01 AUDIO
TITLE "Baby Like Fonkin' it Up"
PERFORMER "Funkadelic"
ISRC USA2P1454556
INDEX 01 00:00:00
TRACK 02 AUDIO
TITLE "Get Low"
PERFORMER "Funkadelic"
ISRC USA2P1454557
FLAGS DCP
INDEX 00 09:36:43
FILE "02 - Get Low.wav" WAVE
INDEX 01 00:00:00
TRACK 03 AUDIO
TITLE "If I Didn't Love You"
PERFORMER "Funkadelic"
ISRC USA2P1454557
FLAGS DCP
INDEX 00 05:43:67
FILE "03 - If I Didn't Love You.wav" WAVE
INDEX 01 00:00:00
TRACK 04 AUDIO
TITLE "Fucked Up"
PERFORMER "Funkadelic"
ISRC USA2P1454559
FLAGS DCP
INDEX 00 04:00:18
FILE "04 - Fucked Up.wav" WAVE
INDEX 01 00:00:00
FILE "05 - Ain't that Funkin' kinda Hard on You.wav" WAVE
TRACK 05 AUDIO
TITLE "Ain't that Funkin' kinda Hard on You?"
PERFORMER "Funkadelic"
ISRC USA2P1454560
FLAGS DCP
INDEX 01 00:00:00
TRACK 06 AUDIO
TITLE "I Mo B Yodog Fo Eva"
PERFORMER "Funkadelic"
ISRC USA2P1454561
FLAGS DCP
INDEX 00 05:30:01
FILE "06 - I Mo B Yodog Fo Eva.wav" WAVE
INDEX 01 00:00:00
TRACK 07 AUDIO
TITLE "In Da Kar"
PERFORMER "Funkadelic"
ISRC USA2P1454562
FLAGS DCP
INDEX 00 05:13:55
FILE "07 - In Da Kar.wav" WAVE
INDEX 01 00:00:00
FILE "08 - Radio Friendly.wav" WAVE
TRACK 08 AUDIO
TITLE "Radio Friendly"
PERFORMER "Funkadelic"
ISRC USA2P1454563
FLAGS DCP
INDEX 01 00:00:00
TRACK 09 AUDIO
TITLE "Mathematics of Love"
PERFORMER "Funkadelic"
ISRC USA2P1454564
FLAGS DCP
INDEX 00 06:16:20
FILE "09 - Mathematics of Love.wav" WAVE
INDEX 01 00:00:00
FILE "10 - Creases.wav" WAVE
TRACK 10 AUDIO
TITLE "Creases"
PERFORMER "Funkadelic"
ISRC USA2P1454565
FLAGS DCP
INDEX 01 00:00:00
TRACK 11 AUDIO
TITLE "Not Your Average Rapper"
PERFORMER "Funkadelic"
ISRC USA2P1454566
FLAGS DCP
INDEX 00 03:10:05
FILE "11 - Not Your Average Rapper.wav" WAVE
INDEX 01 00:00:00
 
CD2
REM GENRE Funk
REM DATE 2014
REM DISCID 8C11670C
REM COMMENT "ExactAudioCopy v1.0b3"
CATALOG 0887158997624
PERFORMER "Funkadelic"
TITLE "first ya gotta SHAKE THE GATE"
FILE "01 - first ya gotta Shake the Gate.wav" WAVE
TRACK 01 AUDIO
TITLE "first ya gotta Shake the Gate"
PERFORMER "Funkadelic"
ISRC USA2P1454567
INDEX 01 00:00:00
FILE "02 - Roller Rink.wav" WAVE
TRACK 02 AUDIO
TITLE "Roller Rink"
PERFORMER "Funkadelic"
ISRC USA2P1454568
FLAGS DCP
INDEX 01 00:00:00
TRACK 03 AUDIO
TITLE "Jolene"
PERFORMER "Funkadelic"
ISRC USA2P1454569
FLAGS DCP
INDEX 00 11:33:68
FILE "03 - Jolene.wav" WAVE
INDEX 01 00:00:00
FILE "04 - Nuclear Dog Part II.wav" WAVE
TRACK 04 AUDIO
TITLE "Nuclear Dog Part II"
PERFORMER "Funkadelic"
ISRC USA2P1454569
FLAGS DCP
INDEX 01 00:00:00
FILE "05 - Dirty Queen.wav" WAVE
TRACK 05 AUDIO
TITLE "Dirty Queen"
PERFORMER "Funkadelic"
ISRC USA2P1454571
FLAGS DCP
INDEX 01 00:00:00
TRACK 06 AUDIO
TITLE "You Can't Unring the Bell"
PERFORMER "Funkadelic"
ISRC USA2P1454572
FLAGS DCP
INDEX 00 03:44:71
FILE "06 - You Can't Unring the Bell.wav" WAVE
INDEX 01 00:00:00
FILE "07 - Old Fool.wav" WAVE
TRACK 07 AUDIO
TITLE "Old Fool"
PERFORMER "Funkadelic"
ISRC USA2P1454573
FLAGS DCP
INDEX 01 00:00:00
FILE "08 - Pole Power.wav" WAVE
TRACK 08 AUDIO
TITLE "Pole Power"
PERFORMER "Funkadelic"
ISRC USA2P1454573
FLAGS DCP
INDEX 01 00:00:00
TRACK 09 AUDIO
TITLE "Boom There We go Again"
PERFORMER "Funkadelic"
ISRC USA2P1454575
FLAGS DCP
INDEX 00 07:01:26
FILE "09 - Boom There We go Again.wav" WAVE
INDEX 01 00:00:00
TRACK 10 AUDIO
TITLE "As In"
PERFORMER "Funkadelic"
ISRC USA2P1454576
FLAGS DCP
INDEX 00 02:55:45
FILE "10 - As In.wav" WAVE
INDEX 01 00:00:00
TRACK 11 AUDIO
TITLE "Bernadette"
PERFORMER "Funkadelic"
ISRC USA2P1454577
FLAGS DCP
INDEX 00 06:49:29
FILE "11 - Bernadette.wav" WAVE
INDEX 01 00:00:00
FILE "12 - Meow Meow.wav" WAVE
TRACK 12 AUDIO
TITLE "Meow Meow"
PERFORMER "Funkadelic"
ISRC USA2P1454577
FLAGS DCP
INDEX 01 00:00:00
 
CD3
REM GENRE Funk
REM DATE 2014
REM DISCID 920E890A
REM COMMENT "ExactAudioCopy v1.0b3"
CATALOG 0887158997624
PERFORMER "Funkadelic"
TITLE "first ya gotta SHAKE THE GATE"
FILE "01 - Catchin' Boogie Fever.wav" WAVE
TRACK 01 AUDIO
TITLE "Catchin' Boogie Fever"
PERFORMER "Funkadelic"
ISRC USA2P1454579
INDEX 01 00:00:00
FILE "02 - The Naz.wav" WAVE
TRACK 02 AUDIO
TITLE "The Naz"
PERFORMER "Funkadelic"
ISRC USQY51354451
FLAGS DCP
INDEX 01 00:00:00
FILE "03 - Talking to The Wall.wav" WAVE
TRACK 03 AUDIO
TITLE "Talking to The Wall"
PERFORMER "Funkadelic"
ISRC USA2P1454581
FLAGS DCP
INDEX 01 00:00:00
TRACK 04 AUDIO
TITLE "Where Would I Go?"
PERFORMER "Funkadelic"
ISRC USA2P1454582
FLAGS DCP
INDEX 00 04:43:24
FILE "04 - Where Would I Go.wav" WAVE
INDEX 01 00:00:00
TRACK 05 AUDIO
TITLE "Yesterdejavu"
PERFORMER "Funkadelic"
ISRC USA2P1454583
FLAGS DCP
INDEX 00 04:26:26
FILE "05 - Yesterdejavu.wav" WAVE
INDEX 01 00:00:00
TRACK 06 AUDIO
TITLE "Zip It"
PERFORMER "Funkadelic"
ISRC USA2P1454584
FLAGS DCP
INDEX 00 07:56:57
FILE "06 - Zip It.wav" WAVE
INDEX 01 00:00:00
TRACK 07 AUDIO
TITLE "The Wall"
PERFORMER "Funkadelic"
ISRC USA2P1454585
FLAGS DCP
INDEX 00 03:35:29
FILE "07 - The Wall.wav" WAVE
INDEX 01 00:00:00
TRACK 08 AUDIO
TITLE "Snot n' Booger"
PERFORMER "Funkadelic"
ISRC USA2P1454586
FLAGS DCP
INDEX 00 09:09:53
FILE "08 - Snot n' Booger.wav" WAVE
INDEX 01 00:00:00
TRACK 09 AUDIO
TITLE "Yellow Light"
PERFORMER "Funkadelic"
ISRC USA2P1454587
FLAGS DCP
INDEX 00 10:44:53
FILE "09 - Yellow Light.wav" WAVE
INDEX 01 00:00:00
TRACK 10 AUDIO
TITLE "Dipety Dipety Doo Stop the Violence"
PERFORMER "Funkadelic"
ISRC USA2P1454588
FLAGS DCP
INDEX 00 04:34:17
FILE "10 - Dipety Dipety Doo Stop the Violence.wav" WAVE
INDEX 01 00:00:00
Доп. информация:
 
Album Review
“Ain’t That Funkin’ Kinda Hard on You” might be the perfect reintroduction of George Clinton (instead of Funkadelic, per se) since it begins with a darkly ingratiating embrace rather that the expected turn-this-mother-out groove.
That’s George Clinton, the master of left turns. At the same time, “Ain’t That Funkin’ Kinda Hard on You” — this standout moment from Funkadelic’s sprawling new comeback effort First Ya Gotta Shake the Gate — stirs in a few distinctly modern elements: There’s the flinty braggadocio of “I was hard when I started, I’ll be hard when I get through,” and those rollicking Roland 808s.
That very newness works as a kind of comfy oldness when it comes to Clinton, who has stayed firmly within an established framework of forward-looking trippy weirdness over the course of myriad lineup shifts and stylistic leaps by Parliament/Funkadelic and an assortment of other similarly named outfits. Clinton keeps himself young that way, it seems.
Always moving, always searching, he’s apparently been recording songs for First Ya Gotta Shake the Gate throughout the lengthy silence between Funkadelic albums. As such, it’s all over the map. In fact, there is no map. Like “Ain’t That Funkin’ Kinda Hard on You,” First Ya Gotta Shake the Gate is offbeat, within and without expectations, somehow throwback and yet modern, maybe a bit too long.
Along the way, Funkadelic often doesn’t sound like Funkadelic at all, as George Clinton dabbles deeply in hip hop, even as they reference earlier triumphs that have more to do with Clinton’s broader discography. (High points include “Baby Like Fonkin’ It Up,” a nod toward “Mr. Wiggles” by Parliament; and “I Mo B Yodog Fo Eva,” perhaps the best take off here on Clinton’s own “Atomic Dog.”) They get into a T-Pain vibe (“Snot n’ Booger”), even while paying their fonky respects to James Brown (“Pole Power”) and covering the Four Tops (“Bernadette”).
The names (as per usual) change again, with familiar figures like Michael Hampton and Bernie Worrell making a rare appearance on “Yesterdejavu,” a guitar-focused track that most closely recalls classic Funkadelic. But how cool is the idea of Clinton joining forces with Sly Stone, as on “The Naz”? He also welcomes in an old friend in the late Jessica Cleaves of the Friends of Distinction, for a remake of “As In” — a tune from Bootsy’s Rubberband.
And so it goes over an astounding 33 songs — mirroring the 33 years since Funkadelic offered its last official release, 1981’s The Electric Spanking of War Babies — as George Clinton and Company create a multi-dimensional, almost exhaustively comprehensive return. It all might have been better served with a judicious edit or 10. It all might not make sense, it all might not be required listening and it all certainly isn’t funkin’ kinda hard. It might have been better titled as a Clinton solo album, too. But First Ya Gotta Shake the Gate is rarely less than interesting, and often brain-bendingly fun. - Nick DeRiso, Something Else Reviews
Приватный:
Нет (DHT включён)
Размер:
1.28 Гб (1,371,116,949 байт) » файлов: 55
Участники:
0 раздают, 0 качают (0 участников всего)
Внешние участники:
2 раздают, 1 качают (3 участников всего) [ Обновить ]
Есть вопросы - пишите личное сообщение пользователю M0p94ok.
04:19
61
Нет комментариев. Ваш будет первым!