Поиск

(Funk, Soul) Tim Maia - Tim Maia 1971 - 2011, FLAC (image+.cue) lossless

(Funk, Soul) Tim Maia - Tim Maia 1971 - 2011, FLAC (image+.cue) lossless
Треклист:
Tim Maia / Tim Maia 1971
Жанр: Funk, Soul
Страна-производитель диска: USA
Год издания диска: 2011
Издатель (лейбл): Polydor
Номер по каталогу: 7314 5196622
Страна: Brazil
Аудио кодек: FLAC (*.flac)
Тип рипа: image+.cue
Битрейт аудио: lossless
Продолжительность: 28:08
Источник (релизер): eD2K, davismiles0
Наличие сканов в содержимом раздачи: нет
Треклист:
01. Festa do Santo Reis
02. Não Quero Dinheiro (Só Quero Amar)
03. Salve Nossa Senhora
04. Um Dia Eu Chego Lá
05. Não Vou Ficar
06. Broken Heart
07. Você
08. Preciso Aprender A Ser Só
09. I Don't Know What to Do With Myself
10. É Por Você Que Eu Vivo
11. Meu País
12. I Don't Care
 
Лог создания рипа
Exact Audio Copy V1.0 beta 1 from 15. November 2010
EAC extraction logfile from 5. February 2011, 15:12
Tim Maia / Tim Maia
Used drive : TSSTcorpDVD+-RW TS-L632H Adapter: 1 ID: 0
Read mode : Secure
Utilize accurate stream : Yes
Defeat audio cache : Yes
Make use of C2 pointers : No
Read offset correction : 6
Overread into Lead-In and Lead-Out : No
Fill up missing offset samples with silence : Yes
Delete leading and trailing silent blocks : No
Null samples used in CRC calculations : Yes
Used interface : Native Win32 interface for Win NT & 2000
Used output format : User Defined Encoder
Selected bitrate : 768 kBit/s
Quality : High
Add ID3 tag : No
Command line compressor : C:\Program Files\Exact Audio Copy\FLAC\FLAC.EXE
Additional command line options : -6 -V -T "ARTIST=%a" -T "TITLE=%t" -T "ALBUM=%g" -T "DATE=%y" -T "TRACKNUMBER=%n" -T "GENRE=%m" -T "COMMENT=%e" %j--picture="%i"%j %s -o %d
TOC of the extracted CD
Track | Start | Length | Start sector | End sector
---------------------------------------------------------
1 | 0:00.00 | 2:41.72 | 0 | 12146
2 | 2:41.72 | 2:34.58 | 12147 | 23754
3 | 5:16.55 | 1:56.30 | 23755 | 32484
4 | 7:13.10 | 2:05.05 | 32485 | 41864
5 | 9:18.15 | 2:54.22 | 41865 | 54936
6 | 12:12.37 | 1:16.08 | 54937 | 60644
7 | 13:28.45 | 4:05.32 | 60645 | 79051
8 | 17:34.02 | 2:44.18 | 79052 | 91369
9 | 20:18.20 | 3:42.17 | 91370 | 108036
10 | 24:00.37 | 2:32.28 | 108037 | 119464
11 | 26:32.65 | 1:35.22 | 119465 | 126611
12 | 28:08.12 | 2:38.03 | 126612 | 138464
Range status and errors
Selected range
Filename C:\Musicas\Tim Maia - 1971 - 2\Tim Maia - Tim Maia.wav
Peak level 100.0 %
Extraction speed 0.3 X
Range quality 100.0 %
Copy CRC 35521865
Copy OK
No errors occurred
AccurateRip summary
Track 1 not present in database
Track 2 not present in database
Track 3 not present in database
Track 4 not present in database
Track 5 not present in database
Track 6 not present in database
Track 7 not present in database
Track 8 not present in database
Track 9 not present in database
Track 10 not present in database
Track 11 not present in database
Track 12 not present in database
None of the tracks are present in the AccurateRip database
End of status report
==== Log checksum 8AAE44BEFB81B7472B8383A75E1626332F6C6B4B41AC6FEE934A880CE32A8696 ====
20:41
527
Нет комментариев. Ваш будет первым!