Поиск

(Funk, Soul) Tim Maia - Tim Maia 1970 - 2011, FLAC (image+.cue) lossless

Треклист:
Tim Maia / Tim Maia 1970
Жанр: Funk, Soul
Страна-производитель диска: USA
Год издания диска: 2011
Издатель (лейбл): Polydor
Номер по каталогу: 04228105152
Страна: Brazil
Аудио кодек: FLAC (*.flac)
Тип рипа: image+.cue
Битрейт аудио: lossless
Продолжительность: 27:37
Источник (релизер): eD2K, davismiles0
Наличие сканов в содержимом раздачи: нет
Треклист:
01. Coroné Antonio Bento
02. Cristina
03. Jurema
04. Padre Cícero
05. Flamengo
06. Você Fingiu
07. Eu Amo Você
08. Primavera (Vai Chuva)
09. Risos
10. Azul da Cor do Mar
11. Cristina No. 2
12. Tributo a Booker Pittman
 
Лог создания рипа
Exact Audio Copy V1.0 beta 1 from 15. November 2010
EAC extraction logfile from 5. February 2011, 14:54
Tim Maia / 1970
Used drive : TSSTcorpDVD+-RW TS-L632H Adapter: 1 ID: 0
Read mode : Secure
Utilize accurate stream : Yes
Defeat audio cache : Yes
Make use of C2 pointers : No
Read offset correction : 6
Overread into Lead-In and Lead-Out : No
Fill up missing offset samples with silence : Yes
Delete leading and trailing silent blocks : No
Null samples used in CRC calculations : Yes
Used interface : Native Win32 interface for Win NT & 2000
Used output format : User Defined Encoder
Selected bitrate : 768 kBit/s
Quality : High
Add ID3 tag : No
Command line compressor : C:\Program Files\Exact Audio Copy\FLAC\FLAC.EXE
Additional command line options : -6 -V -T "ARTIST=%a" -T "TITLE=%t" -T "ALBUM=%g" -T "DATE=%y" -T "TRACKNUMBER=%n" -T "GENRE=%m" -T "COMMENT=%e" %j--picture="%i"%j %s -o %d
TOC of the extracted CD
Track | Start | Length | Start sector | End sector
---------------------------------------------------------
1 | 0:00.00 | 2:12.55 | 0 | 9954
2 | 2:12.55 | 2:06.62 | 9955 | 19466
3 | 4:19.42 | 1:13.68 | 19467 | 25009
4 | 5:33.35 | 2:22.37 | 25010 | 35696
5 | 7:55.72 | 2:01.73 | 35697 | 44844
6 | 9:57.70 | 3:59.35 | 44845 | 62804
7 | 13:57.30 | 4:04.60 | 62805 | 81164
8 | 18:02.15 | 2:08.67 | 81165 | 90831
9 | 20:11.07 | 2:35.48 | 90832 | 102504
10 | 22:46.55 | 3:19.40 | 102505 | 117469
11 | 26:06.20 | 1:31.00 | 117470 | 124294
12 | 27:37.20 | 2:46.15 | 124295 | 136759
Range status and errors
Selected range
Filename C:\Musicas\Tim Maia - 1970 - 3\Tim Maia - 1970.wav
Peak level 82.0 %
Extraction speed 0.3 X
Range quality 100.0 %
Copy CRC D0DFC254
Copy OK
No errors occurred
AccurateRip summary
Track 1 not present in database
Track 2 not present in database
Track 3 not present in database
Track 4 not present in database
Track 5 not present in database
Track 6 not present in database
Track 7 not present in database
Track 8 not present in database
Track 9 not present in database
Track 10 not present in database
Track 11 not present in database
Track 12 not present in database
None of the tracks are present in the AccurateRip database
End of status report
==== Log checksum 216B9E4468CCB26E3CB9236EF3DA02E44A7FE7DC5AD2F5C1F4749B4F4EDB80A5 ====
20:40
510
Нет комментариев. Ваш будет первым!