Поиск

(Funk, Soul, R&B) [CD] Ronn Matlock - Love City (1979) - 2013, FLAC (tracks+.cue), lossless

(Funk, Soul, R&B) [CD] Ronn Matlock - Love City (1979) - 2013, FLAC (tracks+.cue), lossless
Треклист:
Ronn Matlock - Love City (1979)
Жанр: Funk, Soul, R&B
Носитель: CD
Страна-производитель диска (релиза): Japan
Год издания: 2013
Издатель (лейбл): Atlantic
Номер по каталогу: WPCR-27648
Аудиокодек: FLAC (*.flac)
Тип рипа: tracks+.cue
Битрейт аудио: lossless
Продолжительность: 45:20
Rip by JET 1
Наличие сканов в содержимом раздачи: да
Треклист:
01. Let Me Dance (5:23)
02. Love City (4:14)
03. I Can't Forget About You (5:13)
04. Feeling Something (3:48)
05. Back Street (4:34)
06. Take Me to the Top (Of Your Mountain) (5:54)
07. You Got the Best of Me (4:15)
08. Working Man (4:29)
09. Let Me Dance [Single Version] (3:33)
10. You Got the Best of Me [Mono Single Version] (3:56)
 
 
Лог создания рипа
Exact Audio Copy V1.0 beta 3 from 29. August 2011
EAC extraction logfile from 17. June 2015, 11:07
Ronn Matlock / Love City
Used drive : ATAPI DVD A DH16A6L-C Adapter: 2 ID: 0
Read mode : Secure
Utilize accurate stream : Yes
Defeat audio cache : Yes
Make use of C2 pointers : No
Read offset correction : 6
Overread into Lead-In and Lead-Out : No
Fill up missing offset samples with silence : Yes
Delete leading and trailing silent blocks : No
Null samples used in CRC calculations : Yes
Used interface : Native Win32 interface for Win NT & 2000
Gap handling : Appended to previous track
Used output format : User Defined Encoder
Selected bitrate : 1024 kBit/s
Quality : High
Add ID3 tag : No
Command line compressor : C:\Program Files\FLAC\flac.exe
Additional command line options : -8 -V -T "ARTIST=%artist%" -T "TITLE=%title%" -T "ALBUM=%albumtitle%" -T "DATE=%year%" -T "TRACKNUMBER=%tracknr%" -T "GENRE=%genre%" -T "PERFORMER=%albuminterpret%" -T "COMPOSER=%composer%" %haslyrics%--tag-from-file=LYRICS="%lyricsfile%"%haslyrics% -T "ALBUMARTIST=%albumartist%" -T "DISCNUMBER=%cdnumber%" -T "TOTALDISCS=%totalcds%" -T "TOTALTRACKS=%numtracks%" -T "COMMENT=%comment%" %source% -o %dest%
TOC of the extracted CD
Track | Start | Length | Start sector | End sector
---------------------------------------------------------
1 | 0:00.00 | 5:22.65 | 0 | 24214
2 | 5:22.65 | 4:13.49 | 24215 | 43238
3 | 9:36.39 | 5:13.17 | 43239 | 66730
4 | 14:49.56 | 3:48.18 | 66731 | 83848
5 | 18:37.74 | 4:33.63 | 83849 | 104386
6 | 23:11.62 | 5:53.66 | 104387 | 130927
7 | 29:05.53 | 4:15.01 | 130928 | 150053
8 | 33:20.54 | 4:29.11 | 150054 | 170239
9 | 37:49.65 | 3:33.30 | 170240 | 186244
10 | 41:23.20 | 3:56.25 | 186245 | 203969
Track 1
Filename F:\MUSIC\0\POSTS\Ronn Matlock - Love City (1979) [2013 Japan]\01 - Let Me Dance.wav
Pre-gap length 0:00:02.00
Peak level 100.0 %
Extraction speed 3.4 X
Track quality 100.0 %
Test CRC E46677A7
Copy CRC E46677A7
Accurately ripped (confidence 5) [A200A0C4] (AR v2)
Copy OK
Track 2
Filename F:\MUSIC\0\POSTS\Ronn Matlock - Love City (1979) [2013 Japan]\02 - Love City.wav
Pre-gap length 0:00:01.24
Peak level 100.0 %
Extraction speed 3.2 X
Track quality 99.9 %
Test CRC 4248BAEA
Copy CRC 4248BAEA
Accurately ripped (confidence 5) [EAA5B463] (AR v2)
Copy OK
Track 3
Filename F:\MUSIC\0\POSTS\Ronn Matlock - Love City (1979) [2013 Japan]\03 - I Can't Forget About You.wav
Pre-gap length 0:00:01.12
Peak level 100.0 %
Extraction speed 4.3 X
Track quality 100.0 %
Test CRC CFD384DF
Copy CRC CFD384DF
Accurately ripped (confidence 5) [DF124F6A] (AR v2)
Copy OK
Track 4
Filename F:\MUSIC\0\POSTS\Ronn Matlock - Love City (1979) [2013 Japan]\04 - Feeling Something.wav
Peak level 100.0 %
Extraction speed 4.6 X
Track quality 100.0 %
Test CRC 6828B39B
Copy CRC 6828B39B
Accurately ripped (confidence 5) [63FF8FFF] (AR v2)
Copy OK
Track 5
Filename F:\MUSIC\0\POSTS\Ronn Matlock - Love City (1979) [2013 Japan]\05 - Back Street.wav
Pre-gap length 0:00:01.41
Peak level 100.0 %
Extraction speed 4.9 X
Track quality 100.0 %
Test CRC 015430CA
Copy CRC 015430CA
Accurately ripped (confidence 5) [4A76F59B] (AR v2)
Copy OK
Track 6
Filename F:\MUSIC\0\POSTS\Ronn Matlock - Love City (1979) [2013 Japan]\06 - Take Me to the Top (Of Your Mountain).wav
Pre-gap length 0:00:00.36
Peak level 100.0 %
Extraction speed 3.5 X
Track quality 99.9 %
Test CRC 01588A55
Copy CRC 01588A55
Accurately ripped (confidence 5) [8099D67B] (AR v2)
Copy OK
Track 7
Filename F:\MUSIC\0\POSTS\Ronn Matlock - Love City (1979) [2013 Japan]\07 - You Got the Best of Me.wav
Peak level 100.0 %
Extraction speed 4.8 X
Track quality 100.0 %
Test CRC 17D8BA12
Copy CRC 17D8BA12
Accurately ripped (confidence 5) [1C54BFC6] (AR v2)
Copy OK
Track 8
Filename F:\MUSIC\0\POSTS\Ronn Matlock - Love City (1979) [2013 Japan]\08 - Working Man.wav
Pre-gap length 0:00:01.21
Peak level 100.0 %
Extraction speed 3.0 X
Track quality 99.8 %
Test CRC 02E2F81D
Copy CRC 02E2F81D
Accurately ripped (confidence 5) [26C4CD1D] (AR v2)
Copy OK
Track 9
Filename F:\MUSIC\0\POSTS\Ronn Matlock - Love City (1979) [2013 Japan]\09 - Let Me Dance [Single Version].wav
Pre-gap length 0:00:02.24
Peak level 100.0 %
Extraction speed 0.8 X
Track quality 99.2 %
Test CRC A986EED2
Copy CRC A986EED2
Accurately ripped (confidence 4) [9D643CE8] (AR v2)
Copy OK
Track 10
Filename F:\MUSIC\0\POSTS\Ronn Matlock - Love City (1979) [2013 Japan]\10 - You Got the Best of Me [Mono Single Version].wav
Pre-gap length 0:00:02.47
Peak level 100.0 %
Extraction speed 1.0 X
Track quality 99.4 %
Test CRC 274DECC6
Copy CRC 274DECC6
Accurately ripped (confidence 5) [2175A890] (AR v2)
Copy OK
All tracks accurately ripped
No errors occurred
End of status report
==== Log checksum 4499CB7A731E72357F1E06E08DD3439B7F6FEB21D219922B9976448773A848E6 ====
 
Содержание индексной карты (.CUE)
REM GENRE Soul
REM DATE 1979
REM DISCID 830A9F0A
REM COMMENT "ExactAudioCopy v1.0b3"
PERFORMER "Ronn Matlock"
TITLE "Love City"
FILE "01 - Let Me Dance.wav" WAVE
TRACK 01 AUDIO
TITLE "Let Me Dance"
PERFORMER "Ronn Matlock"
INDEX 01 00:00:00
TRACK 02 AUDIO
TITLE "Love City"
PERFORMER "Ronn Matlock"
INDEX 00 05:21:41
FILE "02 - Love City.wav" WAVE
INDEX 01 00:00:00
TRACK 03 AUDIO
TITLE "I Can't Forget About You"
PERFORMER "Ronn Matlock"
INDEX 00 04:12:37
FILE "03 - I Can't Forget About You.wav" WAVE
INDEX 01 00:00:00
FILE "04 - Feeling Something.wav" WAVE
TRACK 04 AUDIO
TITLE "Feeling Something"
PERFORMER "Ronn Matlock"
INDEX 01 00:00:00
TRACK 05 AUDIO
TITLE "Back Street"
PERFORMER "Ronn Matlock"
INDEX 00 03:46:52
FILE "05 - Back Street.wav" WAVE
INDEX 01 00:00:00
TRACK 06 AUDIO
TITLE "Take Me to the Top (Of Your Mountain)"
PERFORMER "Ronn Matlock"
INDEX 00 04:33:27
FILE "06 - Take Me to the Top (Of Your Mountain).wav" WAVE
INDEX 01 00:00:00
FILE "07 - You Got the Best of Me.wav" WAVE
TRACK 07 AUDIO
TITLE "You Got the Best of Me"
PERFORMER "Ronn Matlock"
INDEX 01 00:00:00
TRACK 08 AUDIO
TITLE "Working Man"
PERFORMER "Ronn Matlock"
INDEX 00 04:13:55
FILE "08 - Working Man.wav" WAVE
INDEX 01 00:00:00
TRACK 09 AUDIO
TITLE "Let Me Dance [Single Version]"
PERFORMER "Ronn Matlock"
INDEX 00 04:26:62
FILE "09 - Let Me Dance [Single Version].wav" WAVE
INDEX 01 00:00:00
TRACK 10 AUDIO
TITLE "You Got the Best of Me [Mono Single Version]"
PERFORMER "Ronn Matlock"
INDEX 00 03:30:58
FILE "10 - You Got the Best of Me [Mono Single Version].wav" WAVE
INDEX 01 00:00:00
Приватный:
Нет (DHT включён)
Размер:
417.44 Мб (437,717,013 байт) » файлов: 28
Участники:
0 раздают, 0 качают (0 участников всего)
Внешние участники:
2 раздают, 1 качают (3 участников всего) [ Обновить ]
Есть вопросы - пишите личное сообщение пользователю M0p94ok.
06:29
108
Нет комментариев. Ваш будет первым!