Поиск

(Funk, Soul, R&B) [CD] Buddy Miles - All The Faces Of Buddy Miles (1974) - 2012, FLAC (tracks+.cue), lossless

(Funk, Soul, R&B) [CD] Buddy Miles - All The Faces Of Buddy Miles (1974) - 2012, FLAC (tracks+.cue), lossless
Треклист:
Buddy Miles - All The Faces Of Buddy Miles (1974)
Жанр: Funk, Soul, R&B
Носитель: CD
Год издания: 2012
Издатель (лейбл): BBR Records
Номер по каталогу: CDBBR 0123
Аудиокодек: FLAC (*.flac)
Тип рипа: tracks+.cue
Битрейт аудио: lossless
Продолжительность: 39:20
Rip by JET 1
Наличие сканов в содержимом раздачи: да
Треклист:
01. Pull Yourself Together (4:23)
02. We Got Love (3:19)
03. All The Faces (2:51)
04. I'm Just A Kiss Away (3:09)
05. It's Only The Good Times (3:55)
06. Got To Find Ms. Right (3:20)
07. Pain (3:09)
08. Kiss And Run (3:22)
09. Wants And Needs (The Earth Song) (3:32)
10. Baby Don't Stop (Sit On The Rock) (4:30)
11. Pull Yourself Together (Single Version) (3:50)
 
 
Лог создания рипа
Exact Audio Copy V1.0 beta 3 from 29. August 2011
EAC extraction logfile from 16. June 2015, 4:59
Buddy Miles / All The Faces Of Buddy Miles
Used drive : ATAPI DVD A DH16A6L-C Adapter: 2 ID: 0
Read mode : Secure
Utilize accurate stream : Yes
Defeat audio cache : Yes
Make use of C2 pointers : No
Read offset correction : 6
Overread into Lead-In and Lead-Out : No
Fill up missing offset samples with silence : Yes
Delete leading and trailing silent blocks : No
Null samples used in CRC calculations : Yes
Used interface : Native Win32 interface for Win NT & 2000
Gap handling : Appended to previous track
Used output format : User Defined Encoder
Selected bitrate : 1024 kBit/s
Quality : High
Add ID3 tag : No
Command line compressor : C:\Program Files\FLAC\flac.exe
Additional command line options : -8 -V -T "ARTIST=%artist%" -T "TITLE=%title%" -T "ALBUM=%albumtitle%" -T "DATE=%year%" -T "TRACKNUMBER=%tracknr%" -T "GENRE=%genre%" -T "PERFORMER=%albuminterpret%" -T "COMPOSER=%composer%" %haslyrics%--tag-from-file=LYRICS="%lyricsfile%"%haslyrics% -T "ALBUMARTIST=%albumartist%" -T "DISCNUMBER=%cdnumber%" -T "TOTALDISCS=%totalcds%" -T "TOTALTRACKS=%numtracks%" -T "COMMENT=%comment%" %source% -o %dest%
TOC of the extracted CD
Track | Start | Length | Start sector | End sector
---------------------------------------------------------
1 | 0:00.00 | 4:23.08 | 0 | 19732
2 | 4:23.08 | 3:19.24 | 19733 | 34681
3 | 7:42.32 | 2:50.39 | 34682 | 47470
4 | 10:32.71 | 3:08.58 | 47471 | 61628
5 | 13:41.54 | 3:55.20 | 61629 | 79273
6 | 17:36.74 | 3:20.30 | 79274 | 94303
7 | 20:57.29 | 3:08.57 | 94304 | 108460
8 | 24:06.11 | 3:21.66 | 108461 | 123601
9 | 27:28.02 | 3:32.28 | 123602 | 139529
10 | 31:00.30 | 4:29.66 | 139530 | 159770
11 | 35:30.21 | 3:49.74 | 159771 | 177019
Track 1
Filename F:\MUSIC\0\POSTS\Buddy Miles - All The Faces Of Buddy Miles (1974) [2012 BBR]\01 - Pull Yourself Together.wav
Pre-gap length 0:00:02.00
Peak level 89.1 %
Extraction speed 2.8 X
Track quality 100.0 %
Test CRC ACF56776
Copy CRC ACF56776
Accurately ripped (confidence 1) [67BDC519] (AR v2)
Copy OK
Track 2
Filename F:\MUSIC\0\POSTS\Buddy Miles - All The Faces Of Buddy Miles (1974) [2012 BBR]\02 - We Got Love.wav
Pre-gap length 0:00:01.58
Peak level 89.1 %
Extraction speed 3.0 X
Track quality 100.0 %
Test CRC 4838970C
Copy CRC 4838970C
Accurately ripped (confidence 1) [6B5F6BF8] (AR v2)
Copy OK
Track 3
Filename F:\MUSIC\0\POSTS\Buddy Miles - All The Faces Of Buddy Miles (1974) [2012 BBR]\03 - All The Faces.wav
Pre-gap length 0:00:01.58
Peak level 89.1 %
Extraction speed 3.2 X
Track quality 100.0 %
Test CRC D765B77B
Copy CRC D765B77B
Accurately ripped (confidence 1) [2A0A0B90] (AR v2)
Copy OK
Track 4
Filename F:\MUSIC\0\POSTS\Buddy Miles - All The Faces Of Buddy Miles (1974) [2012 BBR]\04 - I'm Just A Kiss Away.wav
Pre-gap length 0:00:01.58
Peak level 89.1 %
Extraction speed 3.2 X
Track quality 100.0 %
Test CRC 0384D03D
Copy CRC 0384D03D
Accurately ripped (confidence 1) [3685453B] (AR v2)
Copy OK
Track 5
Filename F:\MUSIC\0\POSTS\Buddy Miles - All The Faces Of Buddy Miles (1974) [2012 BBR]\05 - It's Only The Good Times.wav
Pre-gap length 0:00:01.58
Peak level 89.1 %
Extraction speed 3.7 X
Track quality 100.0 %
Test CRC C1EF1167
Copy CRC C1EF1167
Accurately ripped (confidence 1) [FF25DE4A] (AR v2)
Copy OK
Track 6
Filename F:\MUSIC\0\POSTS\Buddy Miles - All The Faces Of Buddy Miles (1974) [2012 BBR]\06 - Got To Find Ms. Right.wav
Pre-gap length 0:00:01.58
Peak level 88.1 %
Extraction speed 4.6 X
Track quality 100.0 %
Test CRC 3744DDF0
Copy CRC 3744DDF0
Accurately ripped (confidence 1) [1D966483] (AR v2)
Copy OK
Track 7
Filename F:\MUSIC\0\POSTS\Buddy Miles - All The Faces Of Buddy Miles (1974) [2012 BBR]\07 - Pain.wav
Pre-gap length 0:00:01.58
Peak level 88.1 %
Extraction speed 4.6 X
Track quality 100.0 %
Test CRC A33F1612
Copy CRC A33F1612
Accurately ripped (confidence 1) [5604A523] (AR v2)
Copy OK
Track 8
Filename F:\MUSIC\0\POSTS\Buddy Miles - All The Faces Of Buddy Miles (1974) [2012 BBR]\08 - Kiss And Run.wav
Pre-gap length 0:00:01.58
Peak level 88.1 %
Extraction speed 4.9 X
Track quality 100.0 %
Test CRC C1051E99
Copy CRC C1051E99
Accurately ripped (confidence 1) [AA395AF9] (AR v2)
Copy OK
Track 9
Filename F:\MUSIC\0\POSTS\Buddy Miles - All The Faces Of Buddy Miles (1974) [2012 BBR]\09 - Wants And Needs (The Earth Song).wav
Pre-gap length 0:00:01.58
Peak level 88.1 %
Extraction speed 5.2 X
Track quality 100.0 %
Test CRC C05D4804
Copy CRC C05D4804
Accurately ripped (confidence 1) [67523EFE] (AR v2)
Copy OK
Track 10
Filename F:\MUSIC\0\POSTS\Buddy Miles - All The Faces Of Buddy Miles (1974) [2012 BBR]\10 - Baby Don't Stop (Sit On The Rock).wav
Pre-gap length 0:00:01.58
Peak level 89.1 %
Extraction speed 4.2 X
Track quality 99.9 %
Test CRC 40B2E161
Copy CRC 40B2E161
Accurately ripped (confidence 1) [F8F718FC] (AR v2)
Copy OK
Track 11
Filename F:\MUSIC\0\POSTS\Buddy Miles - All The Faces Of Buddy Miles (1974) [2012 BBR]\11 - Pull Yourself Together (Single Version).wav
Pre-gap length 0:00:02.58
Peak level 89.1 %
Extraction speed 5.2 X
Track quality 100.0 %
Test CRC E5D490B0
Copy CRC E5D490B0
Accurately ripped (confidence 1) [A029FDB5] (AR v2)
Copy OK
All tracks accurately ripped
No errors occurred
End of status report
==== Log checksum D866AB02094BCDA520CF0C38E6B73526430C44B0FFBC2222481E2A7CA09EE30C ====
 
Содержание индексной карты (.CUE)
REM GENRE Funk
REM DATE 2012
REM DISCID 8C09380B
REM COMMENT "ExactAudioCopy v1.0b3"
PERFORMER "Buddy Miles"
TITLE "All The Faces Of Buddy Miles"
FILE "01 - Pull Yourself Together.wav" WAVE
TRACK 01 AUDIO
TITLE "Pull Yourself Together"
PERFORMER "Buddy Miles"
INDEX 01 00:00:00
TRACK 02 AUDIO
TITLE "We Got Love"
PERFORMER "Buddy Miles"
INDEX 00 04:21:25
FILE "02 - We Got Love.wav" WAVE
INDEX 01 00:00:00
TRACK 03 AUDIO
TITLE "All The Faces"
PERFORMER "Buddy Miles"
INDEX 00 03:17:41
FILE "03 - All The Faces.wav" WAVE
INDEX 01 00:00:00
TRACK 04 AUDIO
TITLE "I'm Just A Kiss Away"
PERFORMER "Buddy Miles"
INDEX 00 02:48:56
FILE "04 - I'm Just A Kiss Away.wav" WAVE
INDEX 01 00:00:00
TRACK 05 AUDIO
TITLE "It's Only The Good Times"
PERFORMER "Buddy Miles"
INDEX 00 03:07:00
FILE "05 - It's Only The Good Times.wav" WAVE
INDEX 01 00:00:00
TRACK 06 AUDIO
TITLE "Got To Find Ms. Right"
PERFORMER "Buddy Miles"
INDEX 00 03:53:37
FILE "06 - Got To Find Ms. Right.wav" WAVE
INDEX 01 00:00:00
TRACK 07 AUDIO
TITLE "Pain"
PERFORMER "Buddy Miles"
INDEX 00 03:18:47
FILE "07 - Pain.wav" WAVE
INDEX 01 00:00:00
TRACK 08 AUDIO
TITLE "Kiss And Run"
PERFORMER "Buddy Miles"
INDEX 00 03:06:74
FILE "08 - Kiss And Run.wav" WAVE
INDEX 01 00:00:00
TRACK 09 AUDIO
TITLE "Wants And Needs (The Earth Song)"
PERFORMER "Buddy Miles"
INDEX 00 03:20:08
FILE "09 - Wants And Needs (The Earth Song).wav" WAVE
INDEX 01 00:00:00
TRACK 10 AUDIO
TITLE "Baby Don't Stop (Sit On The Rock)"
PERFORMER "Buddy Miles"
INDEX 00 03:30:45
FILE "10 - Baby Don't Stop (Sit On The Rock).wav" WAVE
INDEX 01 00:00:00
TRACK 11 AUDIO
TITLE "Pull Yourself Together (Single Version)"
PERFORMER "Buddy Miles"
INDEX 00 04:27:08
FILE "11 - Pull Yourself Together (Single Version).wav" WAVE
INDEX 01 00:00:00
Приватный:
Нет (DHT включён)
Размер:
550.16 Мб (576,882,584 байт) » файлов: 28
Участники:
0 раздают, 0 качают (0 участников всего)
Внешние участники:
2 раздают, 1 качают (3 участников всего) [ Обновить ]
Есть вопросы - пишите личное сообщение пользователю M0p94ok.
06:29
54
Нет комментариев. Ваш будет первым!