Поиск

(Funk, Soul, R&B) [CD] Prince Phillip Mitchell - Top Of The Line (1979) - 2013 {WPCR-27688}, FLAC (tracks+.cue), lossless

(Funk, Soul, R&B) [CD] Prince Phillip Mitchell - Top Of The Line (1979) - 2013 {WPCR-27688}, FLAC (tracks+.cue), lossless
Треклист:
Prince Phillip Mitchell - Top Of The Line (1979)
Жанр: Funk, Soul, R&B
Носитель: CD
Страна-производитель диска (релиза): Japan
Год издания: 2013
Издатель (лейбл): Atlantic/Warner Music Japan
Номер по каталогу: WPCR-27688
Аудиокодек: FLAC (*.flac)
Тип рипа: tracks+.cue
Битрейт аудио: lossless
Продолжительность: 47:55
Rip by JET 1
Наличие сканов в содержимом раздачи: да
Треклист:
01. Top Of The Line (6:49)
02. Use Your Body (5:12)
03. Highlight Of My Life (4:34)
04. In Between Lovers (5:08)
05. I'm So Happy (4:36)
06. If It Ain't Love It'll Go Away (5:50)
07. Paying The Price (3:49)
08. Let's Get Wet (7:13)
09. Take Me Away (4:43)
 
 
Лог создания рипа
Exact Audio Copy V1.0 beta 3 from 29. August 2011
EAC extraction logfile from 9. June 2015, 22:39
Prince Phillip Mitchell / Top Of The Line
Used drive : GENERIC CDRCB05 Adapter: 4 ID: 0
Read mode : Secure
Utilize accurate stream : Yes
Defeat audio cache : Yes
Make use of C2 pointers : No
Read offset correction : 102
Overread into Lead-In and Lead-Out : No
Fill up missing offset samples with silence : Yes
Delete leading and trailing silent blocks : No
Null samples used in CRC calculations : Yes
Used interface : Native Win32 interface for Win NT & 2000
Gap handling : Appended to previous track
Used output format : User Defined Encoder
Selected bitrate : 1024 kBit/s
Quality : High
Add ID3 tag : No
Command line compressor : C:\Program Files\FLAC\flac.exe
Additional command line options : -8 -V -T "ARTIST=%artist%" -T "TITLE=%title%" -T "ALBUM=%albumtitle%" -T "DATE=%year%" -T "TRACKNUMBER=%tracknr%" -T "GENRE=%genre%" -T "PERFORMER=%albuminterpret%" -T "COMPOSER=%composer%" %haslyrics%--tag-from-file=LYRICS="%lyricsfile%"%haslyrics% -T "ALBUMARTIST=%albumartist%" -T "DISCNUMBER=%cdnumber%" -T "TOTALDISCS=%totalcds%" -T "TOTALTRACKS=%numtracks%" -T "COMMENT=%comment%" %source% -o %dest%
TOC of the extracted CD
Track | Start | Length | Start sector | End sector
---------------------------------------------------------
1 | 0:00.00 | 6:49.15 | 0 | 30689
2 | 6:49.15 | 5:12.26 | 30690 | 54115
3 | 12:01.41 | 4:33.63 | 54116 | 74653
4 | 16:35.29 | 5:08.13 | 74654 | 97766
5 | 21:43.42 | 4:36.06 | 97767 | 118472
6 | 26:19.48 | 5:49.66 | 118473 | 144713
7 | 32:09.39 | 3:49.09 | 144714 | 161897
8 | 35:58.48 | 7:13.33 | 161898 | 194405
9 | 43:12.06 | 4:42.63 | 194406 | 215618
Track 1
Filename F:\MUSIC\0\POSTS\Prince Phillip Mitchell - Top Of The Line (1979) [2013 Japan]\01 - Top Of The Line.wav
Pre-gap length 0:00:02.00
Peak level 100.0 %
Extraction speed 2.5 X
Track quality 100.0 %
Test CRC DF4A7675
Copy CRC DF4A7675
Accurately ripped (confidence 1) [1FC0B1AE] (AR v2)
Copy OK
Track 2
Filename F:\MUSIC\0\POSTS\Prince Phillip Mitchell - Top Of The Line (1979) [2013 Japan]\02 - Use Your Body.wav
Pre-gap length 0:00:01.58
Peak level 100.0 %
Extraction speed 2.9 X
Track quality 100.0 %
Test CRC 6564099B
Copy CRC 6564099B
Accurately ripped (confidence 1) [8A482C96] (AR v2)
Copy OK
Track 3
Filename F:\MUSIC\0\POSTS\Prince Phillip Mitchell - Top Of The Line (1979) [2013 Japan]\03 - Highlight Of My Life.wav
Pre-gap length 0:00:01.30
Peak level 100.0 %
Extraction speed 3.1 X
Track quality 100.0 %
Test CRC F0E7F3EB
Copy CRC F0E7F3EB
Accurately ripped (confidence 1) [47601C70] (AR v2)
Copy OK
Track 4
Filename F:\MUSIC\0\POSTS\Prince Phillip Mitchell - Top Of The Line (1979) [2013 Japan]\04 - In Between Lovers.wav
Pre-gap length 0:00:00.65
Peak level 100.0 %
Extraction speed 3.2 X
Track quality 100.0 %
Test CRC 957C1206
Copy CRC 957C1206
Accurately ripped (confidence 1) [23A4A486] (AR v2)
Copy OK
Track 5
Filename F:\MUSIC\0\POSTS\Prince Phillip Mitchell - Top Of The Line (1979) [2013 Japan]\05 - I'm So Happy.wav
Pre-gap length 0:00:02.24
Peak level 100.0 %
Extraction speed 3.5 X
Track quality 100.0 %
Test CRC 1B00758F
Copy CRC 1B00758F
Accurately ripped (confidence 1) [54619FF0] (AR v2)
Copy OK
Track 6
Filename F:\MUSIC\0\POSTS\Prince Phillip Mitchell - Top Of The Line (1979) [2013 Japan]\06 - If It Ain't Love It'll Go Away.wav
Pre-gap length 0:00:02.13
Peak level 100.0 %
Extraction speed 3.8 X
Track quality 100.0 %
Test CRC 6FFAFC43
Copy CRC 6FFAFC43
Accurately ripped (confidence 1) [A5B96057] (AR v2)
Copy OK
Track 7
Filename F:\MUSIC\0\POSTS\Prince Phillip Mitchell - Top Of The Line (1979) [2013 Japan]\07 - Paying The Price.wav
Pre-gap length 0:00:01.40
Peak level 100.0 %
Extraction speed 3.8 X
Track quality 100.0 %
Test CRC 8F540AF0
Copy CRC 8F540AF0
Accurately ripped (confidence 1) [9138E6B3] (AR v2)
Copy OK
Track 8
Filename F:\MUSIC\0\POSTS\Prince Phillip Mitchell - Top Of The Line (1979) [2013 Japan]\08 - Let's Get Wet.wav
Pre-gap length 0:00:01.51
Peak level 100.0 %
Extraction speed 4.2 X
Track quality 100.0 %
Test CRC 7C60C030
Copy CRC 7C60C030
Accurately ripped (confidence 1) [C9F0BA97] (AR v2)
Copy OK
Track 9
Filename F:\MUSIC\0\POSTS\Prince Phillip Mitchell - Top Of The Line (1979) [2013 Japan]\09 - Take Me Away.wav
Pre-gap length 0:00:03.06
Peak level 100.0 %
Extraction speed 3.8 X
Track quality 99.9 %
Test CRC 8CECF725
Copy CRC 8CECF725
Accurately ripped (confidence 1) [50614EFE] (AR v2)
Copy OK
All tracks accurately ripped
No errors occurred
End of status report
==== Log checksum 785C62AA58B9F2EB1561E908F083251F02F0C487C2ACA9ADC1FF95B40A5F0B72 ====
 
Содержание индексной карты (.CUE)
REM GENRE R&B
REM DATE 2013
REM DISCID 700B3A09
REM COMMENT "ExactAudioCopy v1.0b3"
PERFORMER "Prince Phillip Mitchell"
TITLE "Top Of The Line"
FILE "01 - Top Of The Line.wav" WAVE
TRACK 01 AUDIO
TITLE "Top Of The Line"
PERFORMER "Prince Phillip Mitchell"
INDEX 01 00:00:00
TRACK 02 AUDIO
TITLE "Use Your Body"
PERFORMER "Prince Phillip Mitchell"
INDEX 00 06:47:32
FILE "02 - Use Your Body.wav" WAVE
INDEX 01 00:00:00
TRACK 03 AUDIO
TITLE "Highlight Of My Life"
PERFORMER "Prince Phillip Mitchell"
INDEX 00 05:10:71
FILE "03 - Highlight Of My Life.wav" WAVE
INDEX 01 00:00:00
TRACK 04 AUDIO
TITLE "In Between Lovers"
PERFORMER "Prince Phillip Mitchell"
INDEX 00 04:32:73
FILE "04 - In Between Lovers.wav" WAVE
INDEX 01 00:00:00
TRACK 05 AUDIO
TITLE "I'm So Happy"
PERFORMER "Prince Phillip Mitchell"
INDEX 00 05:05:64
FILE "05 - I'm So Happy.wav" WAVE
INDEX 01 00:00:00
TRACK 06 AUDIO
TITLE "If It Ain't Love It'll Go Away"
PERFORMER "Prince Phillip Mitchell"
INDEX 00 04:33:68
FILE "06 - If It Ain't Love It'll Go Away.wav" WAVE
INDEX 01 00:00:00
TRACK 07 AUDIO
TITLE "Paying The Price"
PERFORMER "Prince Phillip Mitchell"
INDEX 00 05:48:26
FILE "07 - Paying The Price.wav" WAVE
INDEX 01 00:00:00
TRACK 08 AUDIO
TITLE "Let's Get Wet"
PERFORMER "Prince Phillip Mitchell"
INDEX 00 03:47:33
FILE "08 - Let's Get Wet.wav" WAVE
INDEX 01 00:00:00
TRACK 09 AUDIO
TITLE "Take Me Away"
PERFORMER "Prince Phillip Mitchell"
INDEX 00 07:10:27
FILE "09 - Take Me Away.wav" WAVE
INDEX 01 00:00:00
Приватный:
Нет (DHT включён)
Размер:
441.65 Мб (463,107,024 байт) » файлов: 29
Участники:
0 раздают, 0 качают (0 участников всего)
Внешние участники:
3 раздают, 1 качают (4 участников всего) [ Обновить ]
Есть вопросы - пишите личное сообщение пользователю M0p94ok.
06:27
95
Нет комментариев. Ваш будет первым!