Поиск

(Funk, Soul, R&B) [CD] Prince Phillip Mitchell - Make It Good (1978) - 2013 {WPCR-27638}, FLAC (tracks+.cue), lossless

(Funk, Soul, R&B) [CD] Prince Phillip Mitchell - Make It Good (1978) - 2013 {WPCR-27638}, FLAC (tracks+.cue), lossless
Треклист:
Prince Phillip Mitchell - Make It Good (1978)
Жанр: Funk, Soul, R&B
Носитель: CD
Страна-производитель диска (релиза): Japan
Год издания: 2013
Издатель (лейбл): Atlantic/Warner Music Japan
Номер по каталогу: WPCR-27638
Аудиокодек: FLAC (*.flac)
Тип рипа: tracks+.cue
Битрейт аудио: lossless
Продолжительность: 54:04
Rip by JET 1
Наличие сканов в содержимом раздачи: да
Треклист:
01. Star In The Ghetto (7:20)
02. You're All I Got In The World (5:18)
03. One On One (4:17)
04. Falling From Heaven (6:20)
05. You'll Throw Bricks At Him (6:06)
06. Make It Good (3:39)
07. If I Can't Be Your Man (7:20)
08. Only Smoke Remains (4:19)
09. One On One (Long Single Version) (4:44)
10. What Part Of Heaven Do You Come From? (4:40)
 
 
Лог создания рипа
Exact Audio Copy V1.0 beta 3 from 29. August 2011
EAC extraction logfile from 9. June 2015, 21:27
Prince Phillip Mitchell / Make It Good
Used drive : GENERIC CDRCB05 Adapter: 4 ID: 0
Read mode : Secure
Utilize accurate stream : Yes
Defeat audio cache : Yes
Make use of C2 pointers : No
Read offset correction : 102
Overread into Lead-In and Lead-Out : No
Fill up missing offset samples with silence : Yes
Delete leading and trailing silent blocks : No
Null samples used in CRC calculations : Yes
Used interface : Native Win32 interface for Win NT & 2000
Gap handling : Appended to previous track
Used output format : User Defined Encoder
Selected bitrate : 1024 kBit/s
Quality : High
Add ID3 tag : No
Command line compressor : C:\Program Files\FLAC\flac.exe
Additional command line options : -8 -V -T "ARTIST=%artist%" -T "TITLE=%title%" -T "ALBUM=%albumtitle%" -T "DATE=%year%" -T "TRACKNUMBER=%tracknr%" -T "GENRE=%genre%" -T "PERFORMER=%albuminterpret%" -T "COMPOSER=%composer%" %haslyrics%--tag-from-file=LYRICS="%lyricsfile%"%haslyrics% -T "ALBUMARTIST=%albumartist%" -T "DISCNUMBER=%cdnumber%" -T "TOTALDISCS=%totalcds%" -T "TOTALTRACKS=%numtracks%" -T "COMMENT=%comment%" %source% -o %dest%
TOC of the extracted CD
Track | Start | Length | Start sector | End sector
---------------------------------------------------------
1 | 0:00.00 | 7:20.07 | 0 | 33006
2 | 7:20.07 | 5:18.23 | 33007 | 56879
3 | 12:38.30 | 4:17.27 | 56880 | 76181
4 | 16:55.57 | 6:19.57 | 76182 | 104663
5 | 23:15.39 | 6:06.18 | 104664 | 132131
6 | 29:21.57 | 3:38.52 | 132132 | 148533
7 | 33:00.34 | 7:20.20 | 148534 | 181553
8 | 40:20.54 | 4:19.00 | 181554 | 200978
9 | 44:39.54 | 4:43.56 | 200979 | 222259
10 | 49:23.35 | 4:40.04 | 222260 | 243263
Track 1
Filename F:\MUSIC\0\POSTS\Prince Phillip Mitchell - Make It Good (1978) [2013 Japan]\01 - Star In The Ghetto.wav
Pre-gap length 0:00:02.00
Peak level 100.0 %
Extraction speed 2.6 X
Track quality 100.0 %
Test CRC BF18A86D
Copy CRC BF18A86D
Accurately ripped (confidence 3) [07EC2A00] (AR v2)
Copy OK
Track 2
Filename F:\MUSIC\0\POSTS\Prince Phillip Mitchell - Make It Good (1978) [2013 Japan]\02 - You're All I Got In The World.wav
Pre-gap length 0:00:01.46
Peak level 100.0 %
Extraction speed 3.0 X
Track quality 100.0 %
Test CRC 92036B46
Copy CRC 92036B46
Accurately ripped (confidence 3) [E2124A9D] (AR v2)
Copy OK
Track 3
Filename F:\MUSIC\0\POSTS\Prince Phillip Mitchell - Make It Good (1978) [2013 Japan]\03 - One On One.wav
Pre-gap length 0:00:01.39
Peak level 100.0 %
Extraction speed 3.0 X
Track quality 100.0 %
Test CRC 5084F558
Copy CRC 5084F558
Accurately ripped (confidence 3) [55EEF3D9] (AR v2)
Copy OK
Track 4
Filename F:\MUSIC\0\POSTS\Prince Phillip Mitchell - Make It Good (1978) [2013 Japan]\04 - Falling From Heaven.wav
Pre-gap length 0:00:01.49
Peak level 100.0 %
Extraction speed 3.0 X
Track quality 99.9 %
Test CRC 050C5565
Copy CRC 050C5565
Accurately ripped (confidence 3) [5D0AC937] (AR v2)
Copy OK
Track 5
Filename F:\MUSIC\0\POSTS\Prince Phillip Mitchell - Make It Good (1978) [2013 Japan]\05 - You'll Throw Bricks At Him.wav
Pre-gap length 0:00:02.21
Peak level 100.0 %
Extraction speed 3.4 X
Track quality 100.0 %
Test CRC AF8C0761
Copy CRC AF8C0761
Accurately ripped (confidence 3) [FC7BAC9B] (AR v2)
Copy OK
Track 6
Filename F:\MUSIC\0\POSTS\Prince Phillip Mitchell - Make It Good (1978) [2013 Japan]\06 - Make It Good.wav
Pre-gap length 0:00:02.04
Peak level 100.0 %
Extraction speed 3.7 X
Track quality 100.0 %
Test CRC 90BEAAC4
Copy CRC 90BEAAC4
Accurately ripped (confidence 3) [091B9EED] (AR v2)
Copy OK
Track 7
Filename F:\MUSIC\0\POSTS\Prince Phillip Mitchell - Make It Good (1978) [2013 Japan]\07 - If I Can't Be Your Man.wav
Pre-gap length 0:00:01.25
Peak level 100.0 %
Extraction speed 4.0 X
Track quality 100.0 %
Test CRC 731B9AD4
Copy CRC 731B9AD4
Accurately ripped (confidence 3) [73DE533F] (AR v2)
Copy OK
Track 8
Filename F:\MUSIC\0\POSTS\Prince Phillip Mitchell - Make It Good (1978) [2013 Japan]\08 - Only Smoke Remains.wav
Pre-gap length 0:00:01.70
Peak level 100.0 %
Extraction speed 4.0 X
Track quality 100.0 %
Test CRC 5456B3A1
Copy CRC 5456B3A1
Accurately ripped (confidence 3) [6382ABEA] (AR v2)
Copy OK
Track 9
Filename F:\MUSIC\0\POSTS\Prince Phillip Mitchell - Make It Good (1978) [2013 Japan]\09 - One On One (Long Single Version).wav
Pre-gap length 0:00:02.13
Peak level 100.0 %
Extraction speed 4.3 X
Track quality 100.0 %
Test CRC D8F2E51C
Copy CRC D8F2E51C
Accurately ripped (confidence 3) [EA78FCB2] (AR v2)
Copy OK
Track 10
Filename F:\MUSIC\0\POSTS\Prince Phillip Mitchell - Make It Good (1978) [2013 Japan]\10 - What Part Of Heaven Do You Come From.wav
Pre-gap length 0:00:03.03
Peak level 100.0 %
Extraction speed 4.4 X
Track quality 100.0 %
Test CRC EE1AFBD3
Copy CRC EE1AFBD3
Accurately ripped (confidence 3) [B7380236] (AR v2)
Copy OK
All tracks accurately ripped
No errors occurred
End of status report
==== Log checksum EDBDFF5EA6EEC28963577E0460C9E8889730AAEE9C9F66F38037E033B5535BC6 ====
 
Содержание индексной карты (.CUE)
REM GENRE Soul
REM DATE 2013
REM DISCID 8C0CAB0A
REM COMMENT "ExactAudioCopy v1.0b3"
PERFORMER "Prince Phillip Mitchell"
TITLE "Make It Good"
FILE "01 - Star In The Ghetto.wav" WAVE
TRACK 01 AUDIO
TITLE "Star In The Ghetto"
PERFORMER "Prince Phillip Mitchell"
INDEX 01 00:00:00
TRACK 02 AUDIO
TITLE "You're All I Got In The World"
PERFORMER "Prince Phillip Mitchell"
INDEX 00 07:18:36
FILE "02 - You're All I Got In The World.wav" WAVE
INDEX 01 00:00:00
TRACK 03 AUDIO
TITLE "One On One"
PERFORMER "Prince Phillip Mitchell"
INDEX 00 05:16:59
FILE "03 - One On One.wav" WAVE
INDEX 01 00:00:00
TRACK 04 AUDIO
TITLE "Falling From Heaven"
PERFORMER "Prince Phillip Mitchell"
INDEX 00 04:15:53
FILE "04 - Falling From Heaven.wav" WAVE
INDEX 01 00:00:00
TRACK 05 AUDIO
TITLE "You'll Throw Bricks At Him"
PERFORMER "Prince Phillip Mitchell"
INDEX 00 06:17:36
FILE "05 - You'll Throw Bricks At Him.wav" WAVE
INDEX 01 00:00:00
TRACK 06 AUDIO
TITLE "Make It Good"
PERFORMER "Prince Phillip Mitchell"
INDEX 00 06:04:14
FILE "06 - Make It Good.wav" WAVE
INDEX 01 00:00:00
TRACK 07 AUDIO
TITLE "If I Can't Be Your Man"
PERFORMER "Prince Phillip Mitchell"
INDEX 00 03:37:27
FILE "07 - If I Can't Be Your Man.wav" WAVE
INDEX 01 00:00:00
TRACK 08 AUDIO
TITLE "Only Smoke Remains"
PERFORMER "Prince Phillip Mitchell"
INDEX 00 07:18:25
FILE "08 - Only Smoke Remains.wav" WAVE
INDEX 01 00:00:00
TRACK 09 AUDIO
TITLE "One On One (Long Single Version)"
PERFORMER "Prince Phillip Mitchell"
INDEX 00 04:16:62
FILE "09 - One On One (Long Single Version).wav" WAVE
INDEX 01 00:00:00
TRACK 10 AUDIO
TITLE "What Part Of Heaven Do You Come From?"
PERFORMER "Prince Phillip Mitchell"
INDEX 00 04:40:53
FILE "10 - What Part Of Heaven Do You Come From.wav" WAVE
INDEX 01 00:00:00
Приватный:
Нет (DHT включён)
Размер:
478.61 Мб (501,856,994 байт) » файлов: 29
Участники:
0 раздают, 0 качают (0 участников всего)
Внешние участники:
5 раздают, 1 качают (6 участников всего) [ Обновить ]
No seeders - write personal message to user M0p94ok. Нет сидеров - пишите личное сообщение пользователю M0p94ok.
06:27
51
Нет комментариев. Ваш будет первым!