Поиск

(Funk / Soul, Disco) [CD] Quincy Jones - The Dude - 2016 (1981), FLAC (tracks+.cue), lossless

(Funk / Soul, Disco) [CD] Quincy Jones - The Dude - 2016 (1981), FLAC (tracks+.cue), lossless
Треклист:
Quincy Jones / The Dude
Жанр: Funk / Soul, Disco
Носитель: CD
Страна-производитель диска (релиза): Japan
Год издания: 2016
Издатель (лейбл): Universal Music
Номер по каталогу: UCCU - 5807
Страна исполнителя (группы): usa
Аудиокодек: FLAC (*.flac)
Тип рипа: tracks+.cue
Битрейт аудио: lossless
Продолжительность: 41:10
Источник (релизер): CD
Наличие сканов в содержимом раздачи: да
Треклист:
01 Ai No Corrida (06:26)
02 The Dude (05:37)
03 Just Once (04:33)
04 Betcha' Wouldn't Hurt Me (03:34)
05 Somethin' Special (03:57)
06 Razzamatazz (04:15)
07 One Hundred Ways (04:18)
08 Velas (04:08)
09 Turn On The Action (04:20)
 
Лог создания рипа
Exact Audio Copy V1.0 beta 2 from 29. April 2011
Отчёт EAC об извлечении, выполненном 20. декабря 2016, 11:04
Quincy Jones / The Dude
Дисковод: PLEXTOR BDDVDRPX-B330SA Adapter: 0 ID: 1
Режим чтения : Достоверность
Использование точного потока : Да
Отключение кэша аудио : Да
Использование указателей C2 : Нет
Коррекция смещения при чтении : 702
Способность читать области Lead-in и Lead-out : Нет
Заполнение пропущенных сэмплов тишиной : Да
Удаление блоков с тишиной в начале и конце : Нет
При вычислениях CRC использовались нулевые сэмплы : Да
Интерфейс : Встроенный Win32-интерфейс для Win NT/2000
Обработка зазоров : Добавлено к предыдущему треку
Выходной формат : Пользовательский кодировщик
Выбранный битрейт : 128 kBit/s
Качество : Высокий
Добавление ID3-тега : Нет
Утилита сжатия : C:\Program Files\Exact Audio Copy\FLAC\FLAC.EXE
Дополнительные параметры : -6 -V -T "ARTIST=%artist%" -T "TITLE=%title%" -T "ALBUM=%albumtitle%" -T "DATE=%year%" -T "TRACKNUMBER=
%tracknr%" -T "GENRE=%genre%" -T "COMMENT=%comment%" -T "BAND=%albuminterpret%" -T "COMPOSER=%composer%" %haslyrics%--tag-from-
TOC извлечённого CD
Трек | Старт | Длительность | Начальный сектор | Конечный сектор
---------------------------------------------------------------------
1 | 0:00.00 | 6:26.32 | 0 | 28981
2 | 6:26.32 | 5:37.50 | 28982 | 54306
3 | 12:04.07 | 4:33.33 | 54307 | 74814
4 | 16:37.40 | 3:34.12 | 74815 | 90876
5 | 20:11.52 | 3:57.60 | 90877 | 108711
6 | 24:09.37 | 4:15.70 | 108712 | 127906
7 | 28:25.32 | 4:18.68 | 127907 | 147324
8 | 32:44.25 | 4:05.65 | 147325 | 165764
9 | 36:50.15 | 4:20.35 | 165765 | 185299
Трек 1
Имя файла D:\FLAC\01 Ai No Corrida.wav
Длина предзазора 0:00:02.00
Пиковый уровень 96.5 %
Скорость извлечения 4.1 X
Качество трека 99.9 %
CRC теста AB1FE992
CRC копии AB1FE992
Точность не определена (достоверность 14) [17DE7BC6], AccurateRip вернул [268F15BE] (AR v2)
Копирование... OK
Трек 2
Имя файла D:\FLAC\02 The Dude.wav
Пиковый уровень 100.0 %
Скорость извлечения 4.8 X
Качество трека 99.9 %
CRC теста 012FCE0F
CRC копии 012FCE0F
Точность не определена (достоверность 13) [14F32E2C], AccurateRip вернул [32BDB106] (AR v2)
Копирование... OK
Трек 3
Имя файла D:\FLAC\03 Just Once.wav
Длина предзазора 0:00:01.35
Пиковый уровень 91.0 %
Скорость извлечения 5.4 X
Качество трека 100.0 %
CRC теста 7A268957
CRC копии 7A268957
Точность не определена (достоверность 13) [DA5FB297], AccurateRip вернул [AB14AEFA] (AR v2)
Копирование... OK
Трек 4
Имя файла D:\FLAC\04 Betcha' Wouldn't Hurt Me.wav
Длина предзазора 0:00:01.70
Пиковый уровень 96.4 %
Скорость извлечения 5.5 X
Качество трека 100.0 %
CRC теста 4D191272
CRC копии 4D191272
Точность не определена (достоверность 13) [6B9C974C], AccurateRip вернул [47927CB0] (AR v2)
Копирование... OK
Трек 5
Имя файла D:\FLAC\05 Somethin' Special.wav
Пиковый уровень 82.9 %
Скорость извлечения 5.9 X
Качество трека 100.0 %
CRC теста A4099067
CRC копии A4099067
Точность не определена (достоверность 13) [644F7028], AccurateRip вернул [7EC5F43C] (AR v2)
Копирование... OK
Трек 6
Имя файла D:\FLAC\06 Razzamatazz.wav
Длина предзазора 0:00:01.15
Пиковый уровень 91.9 %
Скорость извлечения 5.8 X
Качество трека 99.9 %
CRC теста 9C977820
CRC копии 9C977820
Точность не определена (достоверность 13) [588BCBA0], AccurateRip вернул [01C13F96] (AR v2)
Копирование... OK
Трек 7
Имя файла D:\FLAC\07 One Hundred Ways.wav
Длина предзазора 0:00:01.55
Пиковый уровень 73.6 %
Скорость извлечения 6.6 X
Качество трека 100.0 %
CRC теста 6322046D
CRC копии 6322046D
Точность не определена (достоверность 13) [040726F4], AccurateRip вернул [95428CF5] (AR v2)
Копирование... OK
Трек 8
Имя файла D:\FLAC\08 Velas.wav
Длина предзазора 0:00:00.55
Пиковый уровень 84.0 %
Скорость извлечения 6.6 X
Качество трека 100.0 %
CRC теста A6B45D2F
CRC копии A6B45D2F
Точность не определена (достоверность 13) [24982192], AccurateRip вернул [51F81541] (AR v2)
Копирование... OK
Трек 9
Имя файла D:\FLAC\09 Turn On The Action.wav
Длина предзазора 0:00:02.45
Пиковый уровень 89.5 %
Скорость извлечения 2.9 X
Качество трека 100.0 %
CRC теста 8738AC2E
CRC копии 8738AC2E
Точность не определена (достоверность 13) [8B918E3A], AccurateRip вернул [C21E914B] (AR v2)
Копирование... OK
Ни один трек не прошёл проверки на точность
В вашей базе может быть иной вариант штамповки диска
Ошибок не произошло
Конец отчёта
---- CUETools DB Plugin V2.1.4
[CTDB TOCID: fClnOZ3E.3qiCFAMO8Ezzky_qf4-] found
Submit result: fClnOZ3E.3qiCFAMO8Ezzky_qf4- has been confirmed
Track | CTDB Status
1 | (42/42) Accurately ripped
2 | (42/42) Accurately ripped
3 | (42/42) Accurately ripped
4 | (42/42) Accurately ripped
5 | (42/42) Accurately ripped
6 | (42/42) Accurately ripped
7 | (42/42) Accurately ripped
8 | (41/42) Accurately ripped
9 | (42/42) Accurately ripped
==== Контрольная сумма отчёта FAC7FD2A699830F297542F3271876F0CE7C08145E5152DF4359E230D698BB5AE ====
 
Содержание индексной карты (.CUE)
REM GENRE Fusion
REM DATE 1981
REM DISCID 7D09A609
REM COMMENT "ExactAudioCopy v1.0b2"
CATALOG 4988005400505
PERFORMER "Quincy Jones"
TITLE "The Dude"
FILE "01 Ai No Corrida.wav" WAVE
TRACK 01 AUDIO
TITLE "Ai No Corrida"
PERFORMER "Quincy Jones"
INDEX 01 00:00:00
FILE "02 The Dude.wav" WAVE
TRACK 02 AUDIO
TITLE "The Dude"
PERFORMER "Quincy Jones"
INDEX 01 00:00:00
TRACK 03 AUDIO
TITLE "Just Once"
PERFORMER "Quincy Jones"
INDEX 00 05:36:15
FILE "03 Just Once.wav" WAVE
INDEX 01 00:00:00
TRACK 04 AUDIO
TITLE "Betcha' Wouldn't Hurt Me"
PERFORMER "Quincy Jones"
INDEX 00 04:31:38
FILE "04 Betcha' Wouldn't Hurt Me.wav" WAVE
INDEX 01 00:00:00
FILE "05 Somethin' Special.wav" WAVE
TRACK 05 AUDIO
TITLE "Somethin' Special"
PERFORMER "Quincy Jones"
INDEX 01 00:00:00
TRACK 06 AUDIO
TITLE "Razzamatazz"
PERFORMER "Quincy Jones"
INDEX 00 03:56:45
FILE "06 Razzamatazz.wav" WAVE
INDEX 01 00:00:00
TRACK 07 AUDIO
TITLE "One Hundred Ways"
PERFORMER "Quincy Jones"
INDEX 00 04:14:15
FILE "07 One Hundred Ways.wav" WAVE
INDEX 01 00:00:00
TRACK 08 AUDIO
TITLE "Velas"
PERFORMER "Quincy Jones"
INDEX 00 04:18:13
FILE "08 Velas.wav" WAVE
INDEX 01 00:00:00
TRACK 09 AUDIO
TITLE "Turn On The Action"
PERFORMER "Quincy Jones"
INDEX 00 04:03:20
FILE "09 Turn On The Action.wav" WAVE
INDEX 01 00:00:00
Доп. информация:
http://www.universal-music.co.jp/p/UCCU-5807/
https://www.discogs.com/Quincy-Jones-The-Dude/release/2761237
Приватный:
Нет (DHT включён)
Размер:
245.52 Мб (257,442,657 байт) » файлов: 23
Участники:
0 раздают, 1 качают (1 участников всего)
Внешние участники:
12 раздают, 4 качают (16 участников всего) [ Обновить ]
Скорость:
860.99 Кб/c 0/c
Есть вопросы - пишите личное сообщение пользователю M0p94ok.
12:26
92
Нет комментариев. Ваш будет первым!