Поиск

(Bayou Funk, Soul, Funk) [CD] Allen Toussaint - The Complete Warner Recordings - 2003 (2016 2CD, Reissue, Remastered), FLAC (tracks+.cue), lossless

(Bayou Funk, Soul, Funk) [CD] Allen Toussaint - The Complete Warner Recordings - 2003 (2016 2CD, Reissue, Remastered), FLAC (tracks+.cue), lossless
Треклист:
Allen Toussaint / The Complete Warner Recordings
Жанр: Bayou Funk, Soul, Funk
Носитель: CD
Страна-производитель диска (релиза): USA
Год издания: 2003
Издатель (лейбл): Rhino Handmade
Номер по каталогу: RF2 7831
Аудиокодек: FLAC (*.flac)
Тип рипа: tracks+.cue
Битрейт аудио: lossless
Продолжительность: 02:38:10
Источник (релизер): artmuss
Наличие сканов в содержимом раздачи: нет
 
CD 1 01:18:55
01. Victims Of The Darkness (03:20)
02. Am I Expecting Too Much (02:50)
03. My Baby Is The Real Thing (03:05)
04. Goin' Down (02:58)
06. Out Of The City (Into Country Life) (03:36)
07. Soul Sister (02:49)
08. Fingers And Toes (04:07)
09. I've Got To Convince Myself (02:43)
10. On Your Way Down (04:00)
11. Gone Too Far (02:47)
12. Electricity (02:33)
13. Last Train (03:01)
14. Worldwide (02:42)
15. Back In Baby's Arms (04:49)
16. Country John (04:45)
17. Basic Lady (02:58)
18. Southern Nights (03:36)
19. You Will Not Lose (03:42)
20. What Do You Want The Girl To Do (03:40)
21. When The Party's Over (02:42)
22. Cruel Way To Go Down (03:52)
23. Country John (Single Version) (04:28)
 
Лог создания рипа
Exact Audio Copy V1.0 beta 3 from 29. August 2011
EAC extraction logfile from 17. December 2016, 20:18
Allen Toussaint / The Complete Warner Recordings
Used drive : MATSHITADVD-RAM UJ8G6 Adapter: 0 ID: 0
Read mode : Secure
Utilize accurate stream : Yes
Defeat audio cache : Yes
Make use of C2 pointers : No
Read offset correction : 103
Overread into Lead-In and Lead-Out : No
Fill up missing offset samples with silence : Yes
Delete leading and trailing silent blocks : No
Null samples used in CRC calculations : Yes
Used interface : Native Win32 interface for Win NT & 2000
Gap handling : Appended to previous track
Used output format : User Defined Encoder
Selected bitrate : 1024 kBit/s
Quality : High
Add ID3 tag : No
Command line compressor : C:\Program Files (x86)\Exact Audio Copy\Flac\flac.exe
Additional command line options : -8 -e -p -V -T "ARTIST=%artist%" -T "TITLE=%title%" -T "ALBUM=%albumtitle%" -T "DATE=%year%" -T "TRACKNUMBER=%tracknr%" -T "GENRE=%genre%" -T "PERFORMER=%albuminterpret%" -T "COMPOSER=%composer%" %haslyrics%--tag-from-file=LYRICS="%lyricsfile%"%haslyrics% -T "ALBUMARTIST=%albumartist%" -T "DISCNUMBER=%cdnumber%" -T "TOTALDISCS=%totalcds%" -T "TOTALTRACKS=%numtracks%" -T "COMMENT=%comment%" %source% -o %dest%
TOC of the extracted CD
Track | Start | Length | Start sector | End sector
---------------------------------------------------------
1 | 0:00.00 | 3:30.57 | 0 | 15806
2 | 3:30.57 | 2:50.58 | 15807 | 28614
3 | 6:21.40 | 3:05.15 | 28615 | 42504
4 | 9:26.55 | 2:58.65 | 42505 | 55919
5 | 12:25.45 | 2:51.55 | 55920 | 68799
6 | 15:17.25 | 3:36.55 | 68800 | 85054
7 | 18:54.05 | 2:49.65 | 85055 | 97794
8 | 21:43.70 | 4:07.35 | 97795 | 116354
9 | 25:51.30 | 2:43.12 | 116355 | 128591
10 | 28:34.42 | 4:00.65 | 128592 | 146656
11 | 32:35.32 | 3:27.73 | 146657 | 162254
12 | 36:03.30 | 2:33.02 | 162255 | 173731
13 | 38:36.32 | 3:01.58 | 173732 | 187364
14 | 41:38.15 | 2:42.40 | 187365 | 199554
15 | 44:20.55 | 4:49.15 | 199555 | 221244
16 | 49:09.70 | 4:45.50 | 221245 | 242669
17 | 53:55.45 | 2:58.70 | 242670 | 256089
18 | 56:54.40 | 3:36.45 | 256090 | 272334
19 | 60:31.10 | 3:42.05 | 272335 | 288989
20 | 64:13.15 | 3:40.15 | 288990 | 305504
21 | 67:53.30 | 2:38.67 | 305505 | 317421
22 | 70:32.22 | 3:52.65 | 317422 | 334886
23 | 74:25.12 | 4:28.18 | 334887 | 355004
Track 1
Filename C:\Allen Toussaint - The Complete Warner Recordings (2016) - FLAC\CD1\01 - Victims of the Darkness.wav
Pre-gap length 0:00:02.00
Peak level 97.2 %
Extraction speed 2.5 X
Track quality 100.0 %
Test CRC F23C65C5
Copy CRC F23C65C5
Cannot be verified as accurate (confidence 5) [4213074D], AccurateRip returned [C39A99ED] (AR v2)
Copy OK
Track 2
Filename C:\Allen Toussaint - The Complete Warner Recordings (2016) - FLAC\CD1\02 - Am I Expecting Too Much.wav
Pre-gap length 0:00:01.16
Peak level 97.2 %
Extraction speed 2.6 X
Track quality 100.0 %
Test CRC C6155699
Copy CRC C6155699
Cannot be verified as accurate (confidence 5) [E258C728], AccurateRip returned [1C5C2921] (AR v2)
Copy OK
Track 3
Filename C:\Allen Toussaint - The Complete Warner Recordings (2016) - FLAC\CD1\03 - My Baby Is the Real Thing.wav
Pre-gap length 0:00:01.18
Peak level 97.2 %
Extraction speed 2.7 X
Track quality 100.0 %
Test CRC 3A99EDD6
Copy CRC 3A99EDD6
Cannot be verified as accurate (confidence 5) [003C6B19], AccurateRip returned [42F08A2B] (AR v2)
Copy OK
Track 4
Filename C:\Allen Toussaint - The Complete Warner Recordings (2016) - FLAC\CD1\04 - Goin' Down.wav
Peak level 97.2 %
Extraction speed 2.9 X
Track quality 100.0 %
Test CRC 9BC5D97D
Copy CRC 9BC5D97D
Cannot be verified as accurate (confidence 5) [CDB7475E], AccurateRip returned [B4EA2291] (AR v2)
Copy OK
Track 5
Filename C:\Allen Toussaint - The Complete Warner Recordings (2016) - FLAC\CD1\05 - She Once Belonged To Me.wav
Peak level 97.2 %
Extraction speed 3.0 X
Track quality 100.0 %
Test CRC 7FDC2712
Copy CRC 7FDC2712
Cannot be verified as accurate (confidence 5) [4327A6B0], AccurateRip returned [E9E618D7] (AR v2)
Copy OK
Track 6
Filename C:\Allen Toussaint - The Complete Warner Recordings (2016) - FLAC\CD1\06 - Out of the City (Into Country Life).wav
Pre-gap length 0:00:01.06
Peak level 97.2 %
Extraction speed 3.2 X
Track quality 100.0 %
Test CRC 7D6BAD05
Copy CRC 7D6BAD05
Cannot be verified as accurate (confidence 5) [0CC0CFDB], AccurateRip returned [3D856947] (AR v2)
Copy OK
Track 7
Filename C:\Allen Toussaint - The Complete Warner Recordings (2016) - FLAC\CD1\07 - Soul Sister.wav
Peak level 97.2 %
Extraction speed 3.3 X
Track quality 100.0 %
Test CRC 2A357FA9
Copy CRC 2A357FA9
Cannot be verified as accurate (confidence 5) [57C29934], AccurateRip returned [8E294AB3] (AR v2)
Copy OK
Track 8
Filename C:\Allen Toussaint - The Complete Warner Recordings (2016) - FLAC\CD1\08 - Fingers and Toes.wav
Peak level 97.2 %
Extraction speed 3.6 X
Track quality 100.0 %
Test CRC 4858219A
Copy CRC 4858219A
Cannot be verified as accurate (confidence 5) [1F6E2438], AccurateRip returned [0D805B56] (AR v2)
Copy OK
Track 9
Filename C:\Allen Toussaint - The Complete Warner Recordings (2016) - FLAC\CD1\09 - I've Got to Convince Myself.wav
Pre-gap length 0:00:02.46
Peak level 97.2 %
Extraction speed 3.5 X
Track quality 100.0 %
Test CRC E176FF52
Copy CRC E176FF52
Cannot be verified as accurate (confidence 5) [A2BE80FF], AccurateRip returned [C8A8FBC8] (AR v2)
Copy OK
Track 10
Filename C:\Allen Toussaint - The Complete Warner Recordings (2016) - FLAC\CD1\10 - On Your Way Down.wav
Pre-gap length 0:00:02.20
Peak level 97.2 %
Extraction speed 3.9 X
Track quality 100.0 %
Test CRC 30D04FD8
Copy CRC 30D04FD8
Cannot be verified as accurate (confidence 5) [F95FAB68], AccurateRip returned [54AD2524] (AR v2)
Copy OK
Track 11
Filename C:\Allen Toussaint - The Complete Warner Recordings (2016) - FLAC\CD1\11 - Gone Too Far.wav
Pre-gap length 0:00:01.09
Peak level 97.2 %
Extraction speed 3.9 X
Track quality 100.0 %
Test CRC 4C59FCD1
Copy CRC 4C59FCD1
Cannot be verified as accurate (confidence 5) [CF341BAA], AccurateRip returned [5B5B2D4D] (AR v2)
Copy OK
Track 12
Filename C:\Allen Toussaint - The Complete Warner Recordings (2016) - FLAC\CD1\12 - Electricity.wav
Pre-gap length 0:00:01.46
Peak level 97.2 %
Extraction speed 2.6 X
Track quality 99.9 %
Test CRC 369455C4
Copy CRC 369455C4
Cannot be verified as accurate (confidence 5) [89744CE4], AccurateRip returned [CF08E209] (AR v2)
Copy OK
Track 13
Filename C:\Allen Toussaint - The Complete Warner Recordings (2016) - FLAC\CD1\13 - Last Train.wav
Pre-gap length 0:00:02.54
Peak level 97.2 %
Extraction speed 4.1 X
Track quality 100.0 %
Test CRC CA225F41
Copy CRC CA225F41
Cannot be verified as accurate (confidence 5) [A532BDDE], AccurateRip returned [34D8997F] (AR v2)
Copy OK
Track 14
Filename C:\Allen Toussaint - The Complete Warner Recordings (2016) - FLAC\CD1\14 - Worldwide.wav
Peak level 97.2 %
Extraction speed 4.0 X
Track quality 100.0 %
Test CRC F480BB4B
Copy CRC F480BB4B
Cannot be verified as accurate (confidence 5) [66631DCD], AccurateRip returned [BCA8C4D3] (AR v2)
Copy OK
Track 15
Filename C:\Allen Toussaint - The Complete Warner Recordings (2016) - FLAC\CD1\15 - Back In Baby's Arms.wav
Peak level 97.2 %
Extraction speed 4.5 X
Track quality 100.0 %
Test CRC 5026381F
Copy CRC 5026381F
Cannot be verified as accurate (confidence 5) [09F09CD5], AccurateRip returned [344E6294] (AR v2)
Copy OK
Track 16
Filename C:\Allen Toussaint - The Complete Warner Recordings (2016) - FLAC\CD1\16 - Country John.wav
Pre-gap length 0:00:01.44
Peak level 97.2 %
Extraction speed 4.7 X
Track quality 100.0 %
Test CRC 40C60C70
Copy CRC 40C60C70
Cannot be verified as accurate (confidence 5) [199AF46C], AccurateRip returned [AC7142FF] (AR v2)
Copy OK
Track 17
Filename C:\Allen Toussaint - The Complete Warner Recordings (2016) - FLAC\CD1\17 - Basic Lady.wav
Peak level 97.2 %
Extraction speed 3.1 X
Track quality 99.9 %
Test CRC 1C22E72B
Copy CRC 1C22E72B
Cannot be verified as accurate (confidence 5) [FBD32C77], AccurateRip returned [9BF05D78] (AR v2)
Copy OK
Track 18
Filename C:\Allen Toussaint - The Complete Warner Recordings (2016) - FLAC\CD1\18 - Southern Nights.wav
Peak level 81.3 %
Extraction speed 4.7 X
Track quality 100.0 %
Test CRC 7E85212F
Copy CRC 7E85212F
Cannot be verified as accurate (confidence 5) [5292E189], AccurateRip returned [01F1CFF5] (AR v2)
Copy OK
Track 19
Filename C:\Allen Toussaint - The Complete Warner Recordings (2016) - FLAC\CD1\19 - You Will Not Lose.wav
Peak level 97.2 %
Extraction speed 3.6 X
Track quality 99.9 %
Test CRC 5B07D8E7
Copy CRC 5B07D8E7
Cannot be verified as accurate (confidence 5) [19C35E82], AccurateRip returned [B8FB905D] (AR v2)
Copy OK
Track 20
Filename C:\Allen Toussaint - The Complete Warner Recordings (2016) - FLAC\CD1\20 - What Do You Want the Girl To Do.wav
Peak level 97.2 %
Extraction speed 5.0 X
Track quality 100.0 %
Test CRC DA032509
Copy CRC DA032509
Cannot be verified as accurate (confidence 5) [11BA882C], AccurateRip returned [CBB2D548] (AR v2)
Copy OK
Track 21
Filename C:\Allen Toussaint - The Complete Warner Recordings (2016) - FLAC\CD1\21 - When the Party's Over.wav
Pre-gap length 0:00:01.10
Peak level 97.2 %
Extraction speed 4.7 X
Track quality 100.0 %
Test CRC 85987CC1
Copy CRC 85987CC1
Cannot be verified as accurate (confidence 5) [351B75C1], AccurateRip returned [3A342424] (AR v2)
Copy OK
Track 22
Filename C:\Allen Toussaint - The Complete Warner Recordings (2016) - FLAC\CD1\22 - Cruel Way To Go Down.wav
Pre-gap length 0:00:01.33
Peak level 97.2 %
Extraction speed 5.2 X
Track quality 100.0 %
Test CRC C9A41240
Copy CRC C9A41240
Cannot be verified as accurate (confidence 5) [FE1876CC], AccurateRip returned [6E78E870] (AR v2)
Copy OK
Track 23
Filename C:\Allen Toussaint - The Complete Warner Recordings (2016) - FLAC\CD1\23 - Country John (Single Version).wav
Pre-gap length 0:00:02.54
Peak level 97.2 %
Extraction speed 4.1 X
Track quality 99.9 %
Test CRC F521F82A
Copy CRC F521F82A
Cannot be verified as accurate (confidence 5) [5D81F3AD], AccurateRip returned [86586CF0] (AR v2)
Copy OK
No tracks could be verified as accurate
You may have a different pressing from the one(s) in the database
No errors occurred
End of status report
---- CUETools DB Plugin V2.1.3
[CTDB TOCID: 4e2.TT69uBhJOTxKqKsbqnD091I-] found, Submit result: 4e2.TT69uBhJOTxKqKsbqnD091I- has been confirmed
[b077ed61] (06/22) Differs in 5 samples @04:39:17
[3c1894de] (16/22) Accurately ripped
You can use CUETools to repair this rip.
==== Log checksum 9A2990664D4F4C1455AD72C975BD83A393DF2D0F29825F51B93E5E66FA469A2B ====
 
Содержание индексной карты (.CUE)
REM GENRE Funk
REM DATE 2016
REM DISCID 4C127D17
REM COMMENT "ExactAudioCopy v1.0b3"
CATALOG 0603497783120
PERFORMER "Allen Toussaint"
TITLE "The Complete Warner Recordings"
FILE "01 - Victims of the Darkness.wav" WAVE
TRACK 01 AUDIO
TITLE "Victims of the Darkness"
PERFORMER "Allen Toussaint"
ISRC USRE10300222
INDEX 01 00:00:00
TRACK 02 AUDIO
TITLE "Am I Expecting Too Much"
PERFORMER "Allen Toussaint"
ISRC USRE10300223
INDEX 00 03:29:45
FILE "02 - Am I Expecting Too Much.wav" WAVE
INDEX 01 00:00:00
TRACK 03 AUDIO
TITLE "My Baby Is the Real Thing"
PERFORMER "Allen Toussaint"
ISRC USRE10300224
INDEX 00 02:49:44
FILE "03 - My Baby Is the Real Thing.wav" WAVE
INDEX 01 00:00:00
FILE "04 - Goin' Down.wav" WAVE
TRACK 04 AUDIO
TITLE "Goin' Down"
PERFORMER "Allen Toussaint"
ISRC USRE10300225
INDEX 01 00:00:00
FILE "05 - She Once Belonged To Me.wav" WAVE
TRACK 05 AUDIO
TITLE "She Once Belonged To Me"
PERFORMER "Allen Toussaint"
ISRC USRE10300226
INDEX 01 00:00:00
TRACK 06 AUDIO
TITLE "Out of the City (Into Country Life)"
PERFORMER "Allen Toussaint"
ISRC USRE10300227
INDEX 00 02:50:50
FILE "06 - Out of the City (Into Country Life).wav" WAVE
INDEX 01 00:00:00
FILE "07 - Soul Sister.wav" WAVE
TRACK 07 AUDIO
TITLE "Soul Sister"
PERFORMER "Allen Toussaint"
ISRC USRE10300228
INDEX 01 00:00:00
FILE "08 - Fingers and Toes.wav" WAVE
TRACK 08 AUDIO
TITLE "Fingers and Toes"
PERFORMER "Allen Toussaint"
ISRC USRE10300232
INDEX 01 00:00:00
TRACK 09 AUDIO
TITLE "I've Got to Convince Myself"
PERFORMER "Allen Toussaint"
ISRC USRE10300233
INDEX 00 04:05:00
FILE "09 - I've Got to Convince Myself.wav" WAVE
INDEX 01 00:00:00
TRACK 10 AUDIO
TITLE "On Your Way Down"
PERFORMER "Allen Toussaint"
ISRC USRE10300234
INDEX 00 02:40:72
FILE "10 - On Your Way Down.wav" WAVE
INDEX 01 00:00:00
TRACK 11 AUDIO
TITLE "Gone Too Far"
PERFORMER "Allen Toussaint"
ISRC USRE10300235
INDEX 00 03:59:58
FILE "11 - Gone Too Far.wav" WAVE
INDEX 01 00:00:00
TRACK 12 AUDIO
TITLE "Electricity"
PERFORMER "Allen Toussaint"
ISRC USRE10300236
INDEX 00 03:26:38
FILE "12 - Electricity.wav" WAVE
INDEX 01 00:00:00
TRACK 13 AUDIO
TITLE "Last Train"
PERFORMER "Allen Toussaint"
ISRC USRE10300237
INDEX 00 02:30:36
FILE "13 - Last Train.wav" WAVE
INDEX 01 00:00:00
FILE "14 - Worldwide.wav" WAVE
TRACK 14 AUDIO
TITLE "Worldwide"
PERFORMER "Allen Toussaint"
ISRC USRE10300238
INDEX 01 00:00:00
FILE "15 - Back In Baby's Arms.wav" WAVE
TRACK 15 AUDIO
TITLE "Back In Baby's Arms"
PERFORMER "Allen Toussaint"
ISRC USRE10300240
INDEX 01 00:00:00
TRACK 16 AUDIO
TITLE "Country John"
PERFORMER "Allen Toussaint"
ISRC USRE10300241
INDEX 00 04:47:57
FILE "16 - Country John.wav" WAVE
INDEX 01 00:00:00
FILE "17 - Basic Lady.wav" WAVE
TRACK 17 AUDIO
TITLE "Basic Lady"
PERFORMER "Allen Toussaint"
ISRC USRE10300243
INDEX 01 00:00:00
FILE "18 - Southern Nights.wav" WAVE
TRACK 18 AUDIO
TITLE "Southern Nights"
PERFORMER "Allen Toussaint"
ISRC USRE10300244
INDEX 01 00:00:00
FILE "19 - You Will Not Lose.wav" WAVE
TRACK 19 AUDIO
TITLE "You Will Not Lose"
PERFORMER "Allen Toussaint"
ISRC USRE10300245
INDEX 01 00:00:00
FILE "20 - What Do You Want the Girl To Do.wav" WAVE
TRACK 20 AUDIO
TITLE "What Do You Want the Girl To Do?"
PERFORMER "Allen Toussaint"
ISRC USRE10300246
INDEX 01 00:00:00
TRACK 21 AUDIO
TITLE "When the Party's Over"
PERFORMER "Allen Toussaint"
ISRC USRE10300247
INDEX 00 03:39:07
FILE "21 - When the Party's Over.wav" WAVE
INDEX 01 00:00:00
TRACK 22 AUDIO
TITLE "Cruel Way To Go Down"
PERFORMER "Allen Toussaint"
ISRC USRE10300248
INDEX 00 02:37:42
FILE "22 - Cruel Way To Go Down.wav" WAVE
INDEX 01 00:00:00
TRACK 23 AUDIO
TITLE "Country John (Single Version)"
PERFORMER "Allen Toussaint"
ISRC USRE10300269
INDEX 00 03:50:24
FILE "23 - Country John (Single Version).wav" WAVE
INDEX 01 00:00:00
 
DR Log
foobar2000 1.1.10 / Dynamic Range Meter 1.1.1
log date: 2016-12-21 20:31:01
--------------------------------------------------------------------------------
Analyzed: Allen Toussaint / The Complete Warner Recordings
--------------------------------------------------------------------------------
DR Peak RMS Duration Track
--------------------------------------------------------------------------------
DR10 -0.24 dB -12.94 dB 3:31 ?-Victims of the Darkness
DR11 -0.24 dB -12.95 dB 2:51 ?-Am I Expecting Too Much
DR11 -0.24 dB -13.16 dB 3:05 ?-My Baby Is the Real Thing
DR11 -0.24 dB -13.85 dB 2:59 ?-Goin' Down
DR11 -0.24 dB -13.73 dB 2:52 ?-She Once Belonged To Me
DR10 -0.24 dB -12.80 dB 3:37 ?-Out of the City (Into Country Life)
DR10 -0.24 dB -12.68 dB 2:50 ?-Soul Sister
DR11 -0.24 dB -13.86 dB 4:07 ?-Fingers and Toes
DR11 -0.24 dB -13.36 dB 2:43 ?-I've Got to Convince Myself
DR11 -0.24 dB -14.79 dB 4:01 ?-On Your Way Down
DR12 -0.24 dB -14.66 dB 3:28 ?-Gone Too Far
DR10 -0.24 dB -12.78 dB 2:33 ?-Electricity
DR12 -0.24 dB -13.75 dB 3:02 ?-Last Train
DR12 -0.24 dB -14.78 dB 2:43 ?-Worldwide
DR12 -0.24 dB -14.07 dB 4:49 ?-Back In Baby's Arms
DR12 -0.24 dB -14.94 dB 4:46 ?-Country John
DR11 -0.24 dB -13.50 dB 2:59 ?-Basic Lady
DR12 -1.80 dB -16.72 dB 3:37 ?-Southern Nights
DR12 -0.24 dB -14.23 dB 3:42 ?-You Will Not Lose
DR13 -0.24 dB -14.83 dB 3:40 ?-What Do You Want the Girl To Do?
DR13 -0.24 dB -15.72 dB 2:39 ?-When the Party's Over
DR12 -0.24 dB -15.40 dB 3:53 ?-Cruel Way To Go Down
DR10 -0.24 dB -12.67 dB 4:28 ?-Country John (Single Version)
--------------------------------------------------------------------------------
Number of tracks: 23
Official DR value: DR11
Samplerate: 44100 Hz
Channels: 2
Bits per sample: 16
Bitrate: 894 kbps
Codec: FLAC
================================================================================
 
CD 2 01:19:17
01. Night People (04:20)
02. Just A Kiss Away (04:10)
03. With You In Mind (03:43)
04. Lover Of Love (03:18)
05. To Be With You (03:24)
06. Motion (06:03)
07. Viva La Money (03:34)
08. Declaration Of Love (04:42)
09. Happiness (03:26)
10. The Optimism Blues (03:05)
11. Intro / High Life (01:55)
12. Touch Of Love (03:09)
13. Brickyard Blues (03:44)
14. What Is Success (03:14)
15. Freedom For The Stallion (03:25)
16. Last Train (02:56)
17. Shoo-Ra (03:29)
18. Allen And Gary Brown (12:15)
19. Southern Nights (04:17)
20. Allen's Closing Remarks (00:59)
 
Лог создания рипа
Exact Audio Copy V1.0 beta 3 from 29. August 2011
EAC extraction logfile from 17. December 2016, 21:42
Allen Toussaint / The Complete Warner Recordings
Used drive : MATSHITADVD-RAM UJ8G6 Adapter: 0 ID: 0
Read mode : Secure
Utilize accurate stream : Yes
Defeat audio cache : Yes
Make use of C2 pointers : No
Read offset correction : 103
Overread into Lead-In and Lead-Out : No
Fill up missing offset samples with silence : Yes
Delete leading and trailing silent blocks : No
Null samples used in CRC calculations : Yes
Used interface : Native Win32 interface for Win NT & 2000
Gap handling : Appended to previous track
Used output format : User Defined Encoder
Selected bitrate : 1024 kBit/s
Quality : High
Add ID3 tag : No
Command line compressor : C:\Program Files (x86)\Exact Audio Copy\Flac\flac.exe
Additional command line options : -8 -e -p -V -T "ARTIST=%artist%" -T "TITLE=%title%" -T "ALBUM=%albumtitle%" -T "DATE=%year%" -T "TRACKNUMBER=%tracknr%" -T "GENRE=%genre%" -T "PERFORMER=%albuminterpret%" -T "COMPOSER=%composer%" %haslyrics%--tag-from-file=LYRICS="%lyricsfile%"%haslyrics% -T "ALBUMARTIST=%albumartist%" -T "DISCNUMBER=%cdnumber%" -T "TOTALDISCS=%totalcds%" -T "TOTALTRACKS=%numtracks%" -T "COMMENT=%comment%" %source% -o %dest%
TOC of the extracted CD
Track | Start | Length | Start sector | End sector
---------------------------------------------------------
1 | 0:00.00 | 4:20.45 | 0 | 19544
2 | 4:20.45 | 4:10.40 | 19545 | 38334
3 | 8:31.10 | 3:43.42 | 38335 | 55101
4 | 12:14.52 | 3:18.43 | 55102 | 69994
5 | 15:33.20 | 3:24.55 | 69995 | 85349
6 | 18:58.00 | 6:03.15 | 85350 | 112589
7 | 25:01.15 | 3:34.65 | 112590 | 128704
8 | 28:36.05 | 4:42.07 | 128705 | 149861
9 | 33:18.12 | 3:26.13 | 149862 | 165324
10 | 36:44.25 | 3:05.22 | 165325 | 179221
11 | 39:49.47 | 1:55.38 | 179222 | 187884
12 | 41:45.10 | 3:09.22 | 187885 | 202081
13 | 44:54.32 | 3:44.38 | 202082 | 218919
14 | 48:38.70 | 3:14.25 | 218920 | 233494
15 | 51:53.20 | 3:25.20 | 233495 | 248889
16 | 55:18.40 | 2:56.15 | 248890 | 262104
17 | 58:14.55 | 3:29.35 | 262105 | 277814
18 | 61:44.15 | 12:15.57 | 277815 | 332996
19 | 73:59.72 | 4:17.30 | 332997 | 352301
20 | 78:17.27 | 0:59.28 | 352302 | 356754
Track 1
Filename C:\Allen Toussaint - The Complete Warner Recordings (2016) - FLAC\CD2\01 - Night People.wav
Pre-gap length 0:00:02.00
Peak level 97.2 %
Extraction speed 2.0 X
Track quality 99.9 %
Test CRC 9C641990
Copy CRC 9C641990
Cannot be verified as accurate (confidence 5) [E6A3A324], AccurateRip returned [0F3E67E6] (AR v2)
Copy OK
Track 2
Filename C:\Allen Toussaint - The Complete Warner Recordings (2016) - FLAC\CD2\02 - Just a Kiss Away.wav
Peak level 97.2 %
Extraction speed 2.8 X
Track quality 100.0 %
Test CRC C02ADF2A
Copy CRC C02ADF2A
Cannot be verified as accurate (confidence 5) [A55AD735], AccurateRip returned [3DA07B85] (AR v2)
Copy OK
Track 3
Filename C:\Allen Toussaint - The Complete Warner Recordings (2016) - FLAC\CD2\03 - With You In Mind.wav
Pre-gap length 0:00:02.04
Peak level 97.2 %
Extraction speed 3.0 X
Track quality 100.0 %
Test CRC 706E698F
Copy CRC 706E698F
Cannot be verified as accurate (confidence 5) [282899AF], AccurateRip returned [2D562CCF] (AR v2)
Copy OK
Track 4
Filename C:\Allen Toussaint - The Complete Warner Recordings (2016) - FLAC\CD2\04 - Lover of Love.wav
Pre-gap length 0:00:01.62
Peak level 97.2 %
Extraction speed 3.1 X
Track quality 100.0 %
Test CRC 2C081203
Copy CRC 2C081203
Cannot be verified as accurate (confidence 5) [901E594B], AccurateRip returned [F3E3574C] (AR v2)
Copy OK
Track 5
Filename C:\Allen Toussaint - The Complete Warner Recordings (2016) - FLAC\CD2\05 - To Be With You.wav
Pre-gap length 0:00:02.04
Peak level 97.2 %
Extraction speed 3.2 X
Track quality 100.0 %
Test CRC AC997291
Copy CRC AC997291
Cannot be verified as accurate (confidence 5) [CD94881E], AccurateRip returned [FE4D213C] (AR v2)
Copy OK
Track 6
Filename C:\Allen Toussaint - The Complete Warner Recordings (2016) - FLAC\CD2\06 - Motion.wav
Peak level 97.2 %
Extraction speed 3.0 X
Track quality 99.9 %
Test CRC 80770455
Copy CRC 80770455
Cannot be verified as accurate (confidence 5) [AA61A79B], AccurateRip returned [372FFB02] (AR v2)
Copy OK
Track 7
Filename C:\Allen Toussaint - The Complete Warner Recordings (2016) - FLAC\CD2\07 - Viva La Money.wav
Pre-gap length 0:00:01.73
Peak level 97.2 %
Extraction speed 3.7 X
Track quality 100.0 %
Test CRC 00527657
Copy CRC 00527657
Cannot be verified as accurate (confidence 5) [DA33F4C6], AccurateRip returned [88F0A815] (AR v2)
Copy OK
Track 8
Filename C:\Allen Toussaint - The Complete Warner Recordings (2016) - FLAC\CD2\08 - Declaration of Love.wav
Pre-gap length 0:00:01.80
Peak level 97.2 %
Extraction speed 3.9 X
Track quality 100.0 %
Test CRC 4AC073C2
Copy CRC 4AC073C2
Cannot be verified as accurate (confidence 5) [698DC342], AccurateRip returned [1D2CD12D] (AR v2)
Copy OK
Track 9
Filename C:\Allen Toussaint - The Complete Warner Recordings (2016) - FLAC\CD2\09 - Happiness.wav
Pre-gap length 0:00:03.73
Peak level 97.2 %
Extraction speed 2.9 X
Track quality 99.9 %
Test CRC 7F587326
Copy CRC 7F587326
Cannot be verified as accurate (confidence 5) [2FE315F0], AccurateRip returned [0F1F4901] (AR v2)
Copy OK
Track 10
Filename C:\Allen Toussaint - The Complete Warner Recordings (2016) - FLAC\CD2\10 - The Optimism Blues.wav
Pre-gap length 0:00:01.24
Peak level 97.2 %
Extraction speed 3.9 X
Track quality 100.0 %
Test CRC 9E9CEF57
Copy CRC 9E9CEF57
Cannot be verified as accurate (confidence 5) [C7FDECBC], AccurateRip returned [72B087EC] (AR v2)
Copy OK
Track 11
Filename C:\Allen Toussaint - The Complete Warner Recordings (2016) - FLAC\CD2\11 - Intro , High Life.wav
Peak level 97.2 %
Extraction speed 2.3 X
Track quality 99.9 %
Test CRC 88BFD22D
Copy CRC 88BFD22D
Cannot be verified as accurate (confidence 4) [4D77B3E0], AccurateRip returned [8E64272D] (AR v2)
Copy OK
Track 12
Filename C:\Allen Toussaint - The Complete Warner Recordings (2016) - FLAC\CD2\12 - Touch of Love.wav
Peak level 97.2 %
Extraction speed 4.1 X
Track quality 100.0 %
Test CRC 3601F46C
Copy CRC 3601F46C
Cannot be verified as accurate (confidence 4) [D5095217], AccurateRip returned [EAAECF1F] (AR v2)
Copy OK
Track 13
Filename C:\Allen Toussaint - The Complete Warner Recordings (2016) - FLAC\CD2\13 - Brickyard Blues.wav
Peak level 99.4 %
Extraction speed 4.4 X
Track quality 100.0 %
Test CRC 51659A1C
Copy CRC 51659A1C
Cannot be verified as accurate (confidence 4) [59C33127], AccurateRip returned [59B9F13D] (AR v2)
Copy OK
Track 14
Filename C:\Allen Toussaint - The Complete Warner Recordings (2016) - FLAC\CD2\14 - What is Sucess.wav
Peak level 97.2 %
Extraction speed 4.4 X
Track quality 100.0 %
Test CRC 3D2ED300
Copy CRC 3D2ED300
Cannot be verified as accurate (confidence 4) [14618E57], AccurateRip returned [2851AE8F] (AR v2)
Copy OK
Track 15
Filename C:\Allen Toussaint - The Complete Warner Recordings (2016) - FLAC\CD2\15 - Freedom For the Stallion.wav
Peak level 97.2 %
Extraction speed 4.5 X
Track quality 100.0 %
Test CRC 425C2E14
Copy CRC 425C2E14
Cannot be verified as accurate (confidence 4) [34427D65], AccurateRip returned [FA61B998] (AR v2)
Copy OK
Track 16
Filename C:\Allen Toussaint - The Complete Warner Recordings (2016) - FLAC\CD2\16 - Last Train.wav
Peak level 97.6 %
Extraction speed 4.4 X
Track quality 100.0 %
Test CRC DDB557DD
Copy CRC DDB557DD
Cannot be verified as accurate (confidence 4) [0157C067], AccurateRip returned [9342739F] (AR v2)
Copy OK
Track 17
Filename C:\Allen Toussaint - The Complete Warner Recordings (2016) - FLAC\CD2\17 - Shoo-Ra.wav
Peak level 97.2 %
Extraction speed 3.4 X
Track quality 99.9 %
Test CRC 299974A7
Copy CRC 299974A7
Cannot be verified as accurate (confidence 4) [6D16CD1C], AccurateRip returned [F2824DE7] (AR v2)
Copy OK
Track 18
Filename C:\Allen Toussaint - The Complete Warner Recordings (2016) - FLAC\CD2\18 - Allen and Gary Brown.wav
Peak level 97.2 %
Extraction speed 5.5 X
Track quality 100.0 %
Test CRC 06D18627
Copy CRC 06D18627
Cannot be verified as accurate (confidence 3) [7E351A74], AccurateRip returned [5E10D828] (AR v2)
Copy OK
Track 19
Filename C:\Allen Toussaint - The Complete Warner Recordings (2016) - FLAC\CD2\19 - Southern Nights.wav
Peak level 86.6 %
Extraction speed 5.3 X
Track quality 100.0 %
Test CRC 16784E9C
Copy CRC 16784E9C
Cannot be verified as accurate (confidence 4) [89EA17F8], AccurateRip returned [23D4ED0D] (AR v2)
Copy OK
Track 20
Filename C:\Allen Toussaint - The Complete Warner Recordings (2016) - FLAC\CD2\20 - Allen's Closing Remarks.wav
Pre-gap length 0:00:08.22
Peak level 97.2 %
Extraction speed 3.8 X
Track quality 100.0 %
Test CRC EC02AB75
Copy CRC EC02AB75
Cannot be verified as accurate (confidence 3) [D6FBF157], AccurateRip returned [632D6957] (AR v2)
Copy OK
No tracks could be verified as accurate
You may have a different pressing from the one(s) in the database
No errors occurred
End of status report
---- CUETools DB Plugin V2.1.3
[CTDB TOCID: au6xdd_xh4iN9P61SDw.QPGRJ5Q-] found, Submit result: au6xdd_xh4iN9P61SDw.QPGRJ5Q- has been confirmed
[d617511d] (18/18) Accurately ripped
==== Log checksum 33AB82C028A2703D811BD61022131AF6BF5D65ABDE58B53BE255982D8D06373D ====
 
Содержание индексной карты (.CUE)
REM GENRE Funk
REM DATE 2016
REM DISCID 05129414
REM COMMENT "ExactAudioCopy v1.0b3"
CATALOG 0603497783120
PERFORMER "Allen Toussaint"
TITLE "The Complete Warner Recordings"
FILE "01 - Night People.wav" WAVE
TRACK 01 AUDIO
TITLE "Night People"
PERFORMER "Allen Toussaint"
ISRC USRE10300249
INDEX 01 00:00:00
FILE "02 - Just a Kiss Away.wav" WAVE
TRACK 02 AUDIO
TITLE "Just a Kiss Away"
PERFORMER "Allen Toussaint"
ISRC USRE10300250
INDEX 01 00:00:00
TRACK 03 AUDIO
TITLE "With You In Mind"
PERFORMER "Allen Toussaint"
ISRC USRE10300251
INDEX 00 04:08:37
FILE "03 - With You In Mind.wav" WAVE
INDEX 01 00:00:00
TRACK 04 AUDIO
TITLE "Lover of Love"
PERFORMER "Allen Toussaint"
ISRC USRE10300252
INDEX 00 03:41:70
FILE "04 - Lover of Love.wav" WAVE
INDEX 01 00:00:00
TRACK 05 AUDIO
TITLE "To Be With You"
PERFORMER "Allen Toussaint"
ISRC USRE10300253
INDEX 00 03:16:40
FILE "05 - To Be With You.wav" WAVE
INDEX 01 00:00:00
FILE "06 - Motion.wav" WAVE
TRACK 06 AUDIO
TITLE "Motion"
PERFORMER "Allen Toussaint"
ISRC USRE10300254
INDEX 01 00:00:00
TRACK 07 AUDIO
TITLE "Viva La Money"
PERFORMER "Allen Toussaint"
ISRC USRE10300255
INDEX 00 06:01:35
FILE "07 - Viva La Money.wav" WAVE
INDEX 01 00:00:00
TRACK 08 AUDIO
TITLE "Declaration of Love"
PERFORMER "Allen Toussaint"
ISRC USRE10300256
INDEX 00 03:33:05
FILE "08 - Declaration of Love.wav" WAVE
INDEX 01 00:00:00
TRACK 09 AUDIO
TITLE "Happiness"
PERFORMER "Allen Toussaint"
ISRC USRE10300257
INDEX 00 04:38:27
FILE "09 - Happiness.wav" WAVE
INDEX 01 00:00:00
TRACK 10 AUDIO
TITLE "The Optimism Blues"
PERFORMER "Allen Toussaint"
ISRC USRE10300258
INDEX 00 03:24:70
FILE "10 - The Optimism Blues.wav" WAVE
INDEX 01 00:00:00
FILE "11 - Intro , High Life.wav" WAVE
TRACK 11 AUDIO
TITLE "Intro / High Life"
PERFORMER "Allen Toussaint"
ISRC USRE10300259
INDEX 01 00:00:00
FILE "12 - Touch of Love.wav" WAVE
TRACK 12 AUDIO
TITLE "Touch of Love"
PERFORMER "Allen Toussaint"
ISRC USRE10300260
INDEX 01 00:00:00
FILE "13 - Brickyard Blues.wav" WAVE
TRACK 13 AUDIO
TITLE "Brickyard Blues"
PERFORMER "Allen Toussaint"
ISRC USRE10300261
INDEX 01 00:00:00
FILE "14 - What is Sucess.wav" WAVE
TRACK 14 AUDIO
TITLE "What is Sucess"
PERFORMER "Allen Toussaint"
ISRC USRE10300262
INDEX 01 00:00:00
FILE "15 - Freedom For the Stallion.wav" WAVE
TRACK 15 AUDIO
TITLE "Freedom For the Stallion"
PERFORMER "Allen Toussaint"
ISRC USRE10300263
INDEX 01 00:00:00
FILE "16 - Last Train.wav" WAVE
TRACK 16 AUDIO
TITLE "Last Train"
PERFORMER "Allen Toussaint"
ISRC USRE10300264
INDEX 01 00:00:00
FILE "17 - Shoo-Ra.wav" WAVE
TRACK 17 AUDIO
TITLE "Shoo-Ra"
PERFORMER "Allen Toussaint"
ISRC USRE10300265
INDEX 01 00:00:00
FILE "18 - Allen and Gary Brown.wav" WAVE
TRACK 18 AUDIO
TITLE "Allen and Gary Brown"
PERFORMER "Allen Toussaint"
ISRC USRE10300266
INDEX 01 00:00:00
FILE "19 - Southern Nights.wav" WAVE
TRACK 19 AUDIO
TITLE "Southern Nights"
PERFORMER "Allen Toussaint"
ISRC USRE10300267
INDEX 01 00:00:00
TRACK 20 AUDIO
TITLE "Allen's Closing Remarks"
PERFORMER "Allen Toussaint"
ISRC USRE10300268
INDEX 00 04:09:13
FILE "20 - Allen's Closing Remarks.wav" WAVE
INDEX 01 00:00:00
 
DR Log
foobar2000 1.1.10 / Dynamic Range Meter 1.1.1
log date: 2016-12-21 20:36:00
--------------------------------------------------------------------------------
Analyzed: Allen Toussaint / The Complete Warner Recordings
--------------------------------------------------------------------------------
DR Peak RMS Duration Track
--------------------------------------------------------------------------------
DR14 -0.24 dB -16.74 dB 4:21 ?-Night People
DR11 -0.24 dB -12.58 dB 4:11 ?-Just a Kiss Away
DR12 -0.24 dB -15.91 dB 3:44 ?-With You In Mind
DR13 -0.24 dB -14.82 dB 3:19 ?-Lover of Love
DR14 -0.24 dB -16.78 dB 3:25 ?-To Be With You
DR12 -0.24 dB -14.84 dB 6:03 ?-Motion
DR12 -0.24 dB -14.20 dB 3:35 ?-Viva La Money
DR9 -0.24 dB -12.96 dB 4:42 ?-Declaration of Love
DR9 -0.24 dB -12.47 dB 3:26 ?-Happiness
DR12 -0.24 dB -13.58 dB 3:05 ?-The Optimism Blues
DR11 -0.24 dB -12.24 dB 1:56 ?-Intro / High Life
DR9 -0.24 dB -10.71 dB 3:09 ?-Touch of Love
DR10 -0.05 dB -11.46 dB 3:45 ?-Brickyard Blues
DR11 -0.24 dB -12.69 dB 3:14 ?-What is Sucess
DR9 -0.24 dB -12.97 dB 3:25 ?-Freedom For the Stallion
DR10 -0.21 dB -11.81 dB 2:56 ?-Last Train
DR10 -0.24 dB -12.05 dB 3:29 ?-Shoo-Ra
DR12 -0.24 dB -15.86 dB 12:16 ?-Allen and Gary Brown
DR12 -1.25 dB -16.97 dB 4:17 ?-Southern Nights
DR15 -0.24 dB -19.98 dB 0:59 ?-Allen's Closing Remarks
--------------------------------------------------------------------------------
Number of tracks: 20
Official DR value: DR11
Samplerate: 44100 Hz
Channels: 2
Bits per sample: 16
Bitrate: 710 kbps
Codec: FLAC
================================================================================
 
Об исполнителе (группе)
When Allen Toussaint died of a heart attack on November 10 of last year, it was a shock to just about everyone, since the famed pianist had still been extremely active, to the point where he’d been set to perform a sold-out show in London on Nov. 15 and to perform a benefit concert with Paul Simon in New Orleans less than a month later. While his absence is still felt even now, we hope this news will help fill at least some small portion of the void: The Complete Warner Recordings, which has been out of print since the sellout of its limited-edition Rhino Handmade release, is now available once more.
This two-disc, 43-track includes Toussaint’s three albums for Warner Brothers – 1971’s Toussaint, 1972’s Life, Love and Faith, and 1975’s Southern Nights – as well as a 10-track live album which up until the Rhino Handmade set had been previously unreleased.
Although Toussaint may be known more for the songs he wrote and produced for others than he is for the work he recorded under his own name, there’s no question that if you’re going to get one Toussaint release for your collection, The Complete Warner Recordings is the way to go. It won’t permanently heal the heartbreak you may have suffered when he left us, but it’ll go a long way toward preserving your memories of the music he made while he was here.
 
Об альбоме (сборнике)
2016 unlimited, unnumbered, retail reissue of Allen Toussaint - The Complete Warner Recordings in standard jewel case.
Art Direction and Design @ gapd.
Tracks 1-01 to 1-12 originally from Reprise album Love, Life And Faith (MS 2062)
Tracks 1.13 to 1.22 originally from Reprise album Southern Nights (MS 2186)
Track 1-23 from Reprise Single 1334
Tracks 2-01 to 2-10 originally from Warner Bros album Motion (BSK 3142)
Tracks 2-11 to 2-20 recorded live in Philadelphia, 1975. Previously unreleased.
This reissue ℗ 1972, 1975, 1978, 2003 Warner Bros. Records. © 2016 Rhino Entertainment Company, a Warner Music Group Company.
 
Состав
Alto Saxophone, Tenor Saxophone, Flute – Lon Price (tracks: 1-13 to 1-22)
Backing Vocals – Bonnie Raitt (tracks: 2-01 to 2-10), Deborah Paul (tracks: 1-13 to 1-22), Etta James (tracks: 2-01 to 2-10), Jessica Smith (tracks: 2-01 to 2-10), Joan Harmon (tracks: 1-13 to 1-22), Julia Tillman* (tracks: 2-01 to 2-10), Maxine Wilard* (tracks: 2-01 to 2-10), Rosemary Butler (tracks: 2-01 to 2-10), Sharon Neborn (tracks: 1-13 to 1-22), Vanetta Fields* (tracks: 2-01 to 2-10)
Baritone Saxophone – Red Tyler* (tracks: 1-01 to 1-12), Carl Blouin (tracks: 1-13 to 1-22)
Bass – Chuck Rainey (tracks: 2-01 to 2-10), George Porter* (tracks: 1-01 to 1-22), Richy Powell (tracks: 1-13 to 1-22), Robert Popwell (tracks: 2-01 to 2-10), Walter Payton (tracks: 1-01 to 1-12)
Congas – Alfred Roberts (tracks: 1-01 to 1-22), Squirrel (3) (tracks: 1-01 to 1-12)
Drums – Clyde Williams (tracks: 1-13 to 1-22), Jeff Porcaro (tracks: 2-01 to 2-10), Joe Lambert (2) (tracks: 1-01 to 1-12), Joseph Modeliste (tracks: 1-01 to 1-22)
Engineer – Dee Rob (tracks: 2-01 to 2-10), Ken Laxton (tracks: 1-13 to 1-22), Mark Elliot (2) (tracks: 1-01 to 1-12), Roberta Grace (tracks: 1-13 to 1-22)
Guitar – George Plummer (tracks: 1-01 to 1-12), Larry Carlton (tracks: 2-01 to 2-10), Leo Nocentelli (tracks: 1-01 to 1-22), Teddy Royal (tracks: 1-13 to 1-22), Vincent Toussaint (tracks: 1-01 to 1-12)
Percussion – Paulinho daCosta* (tracks: 2-01 to 2-10), Victor Feldman (tracks: 2-01 to 2-10)
Piano – Ralph Tee (tracks: 2-01 to 2-10)
Producer – Allen Toussaint (tracks: 1-01 to 1-23), Jerry Wexler (tracks: 2-01 to 2-10), Marshall Sehorn* (tracks: 1-13 to 1-23)
Tenor Saxophone – Alvin Thomas (tracks: 1-01 to 1-12), Gary Brown (2) (tracks: 1-01 to 1-22)
Trombone – Lester Caliste (tracks: 1-13 to 1-22)
Trumpet – Clyde Kerr Jr. (tracks: 1-01 to 1-22), Francis Rousselle (tracks: 1-01 to 1-12), Steve Howard (tracks: 1-13 to 1-22)
Vocals, Guitar, Harmonica, Piano – Allen Toussaint
Приватный:
Нет (DHT включён)
Размер:
939.41 Мб (985,040,244 байт) » файлов: 53
Участники:
0 раздают, 0 качают (0 участников всего)
Внешние участники:
3 раздают, 1 качают (4 участников всего) [ Обновить ]
No seeders - write a personal message to user M0p94ok. Нет сидеров - пишите личное сообщение пользователю M0p94ok.
12:28
95
Нет комментариев. Ваш будет первым!