Поиск

(Funk, Soul, Disco) [CD] Dayton - Dayton (1980) - 2004, FLAC (tracks+.cue), lossless

(Funk, Soul, Disco) [CD] Dayton - Dayton (1980) - 2004, FLAC (tracks+.cue), lossless
Треклист:
Dayton - Dayton (1980) Жанр: Funk, Soul, Disco
Носитель: CD
Год издания: 2004
Издатель (лейбл): EMI
Номер по каталогу: 072435711722
Аудиокодек: FLAC (*.flac)
Тип рипа: tracks+.cue
Битрейт аудио: lossless
Продолжительность: 40:41
Rip by JET 1
Наличие сканов в содержимом раздачи: да
Треклист:
01. Dank (3:49)
02. Eyes On You (6:46)
03. Let Go (5:19)
04. Tonight (4:37)
05. Dayton (Jam) (5:38)
06. Livin' For Today (5:16)
07. So Glad (4:49)
08. Daytime Friend (4:28)
 
 
Об альбоме (сборнике)
Dayton was a post-disco funk band, formed in Dayton, Ohio, United States by Chris Jones (trumpet, keyboards, vocals) from the band Sun and Shawn Sandridge (guitar, vocals) from Over Night Low. Derrick Armstrong (vocals), Kevin Hurt (drums, percussion), Jennifer Matthews (vocals) and Rachel Beavers (vocals) completed the line up. Former Sun member Dean Hummons played the keyboards on the first two Dayton albums.

 
Лог создания рипа
Exact Audio Copy V1.3 from 2. September 2016
EAC extraction logfile from 4. January 2017, 19:35
Dayton / Dayton
Used drive : GENERIC CDRCB05 Adapter: 1 ID: 1
Read mode : Secure
Utilize accurate stream : Yes
Defeat audio cache : Yes
Make use of C2 pointers : No
Read offset correction : 102
Overread into Lead-In and Lead-Out : No
Fill up missing offset samples with silence : Yes
Delete leading and trailing silent blocks : No
Null samples used in CRC calculations : Yes
Used interface : Native Win32 interface for Win NT & 2000
Gap handling : Appended to previous track
Used output format : User Defined Encoder
Selected bitrate : 768 kBit/s
Quality : High
Add ID3 tag : No
Command line compressor : C:\Program Files (x86)\Exact Audio Copy\FLAC\FLAC.EXE
Additional command line options : -6 -V -T "ARTIST=%artist%" -T "TITLE=%title%" -T "ALBUM=%albumtitle%" -T "DATE=%year%" -T "TRACKNUMBER=%tracknr%" -T "GENRE=%genre%" -T "COMMENT=%comment%" -T "BAND=%albuminterpret%" -T "ALBUMARTIST=%albuminterpret%" -T "COMPOSER=%composer%" %haslyrics%--tag-from-file=LYRICS="%lyricsfile%"%haslyrics% -T "DISCNUMBER=%cdnumber%" -T "TOTALDISCS=%totalcds%" -T "TOTALTRACKS=%numtracks%" %hascover%--picture="%coverfile%"%hascover% %source% -o %dest%
TOC of the extracted CD
Track | Start | Length | Start sector | End sector
---------------------------------------------------------
1 | 0:00.36 | 3:49.03 | 36 | 17213
2 | 3:49.39 | 6:45.38 | 17214 | 47626
3 | 10:35.02 | 5:18.58 | 47627 | 71534
4 | 15:53.60 | 4:36.69 | 71535 | 92303
5 | 20:30.54 | 5:37.60 | 92304 | 117638
6 | 26:08.39 | 5:16.18 | 117639 | 141356
7 | 31:24.57 | 4:48.66 | 141357 | 163022
8 | 36:13.48 | 4:27.66 | 163023 | 183113
Track 1
Filename J:\POST\Dayton -‎ Dayton (1980) [2004]\01 Dank.wav
Pre-gap length 0:00:02.36
Peak level 100.0 %
Extraction speed 2.1 X
Track quality 99.9 %
Test CRC 8B172D36
Copy CRC 8B172D36
Accurately ripped (confidence 1) [3AC48E0D] (AR v2)
Copy OK
Track 2
Filename J:\POST\Dayton -‎ Dayton (1980) [2004]\02 Eyes On You.wav
Pre-gap length 0:00:01.05
Peak level 100.0 %
Extraction speed 2.9 X
Track quality 100.0 %
Test CRC 8CFC734A
Copy CRC 8CFC734A
Accurately ripped (confidence 1) [9E300502] (AR v2)
Copy OK
Track 3
Filename J:\POST\Dayton -‎ Dayton (1980) [2004]\03 Let Go.wav
Peak level 100.0 %
Extraction speed 3.2 X
Track quality 100.0 %
Test CRC 22113D59
Copy CRC 22113D59
Accurately ripped (confidence 1) [32D7DA9E] (AR v2)
Copy OK
Track 4
Filename J:\POST\Dayton -‎ Dayton (1980) [2004]\04 Tonight.wav
Peak level 100.0 %
Extraction speed 3.4 X
Track quality 100.0 %
Test CRC 3D296E99
Copy CRC 3D296E99
Accurately ripped (confidence 1) [6651A555] (AR v2)
Copy OK
Track 5
Filename J:\POST\Dayton -‎ Dayton (1980) [2004]\05 Dayton (Jam).wav
Pre-gap length 0:00:01.05
Peak level 100.0 %
Extraction speed 3.7 X
Track quality 100.0 %
Test CRC 350C85E5
Copy CRC 350C85E5
Accurately ripped (confidence 1) [B3929EF0] (AR v2)
Copy OK
Track 6
Filename J:\POST\Dayton -‎ Dayton (1980) [2004]\06 Livin' For Today.wav
Pre-gap length 0:00:00.69
Peak level 100.0 %
Extraction speed 3.9 X
Track quality 100.0 %
Test CRC BB95A954
Copy CRC BB95A954
Accurately ripped (confidence 1) [E8466307] (AR v2)
Copy OK
Track 7
Filename J:\POST\Dayton -‎ Dayton (1980) [2004]\07 So Glad.wav
Pre-gap length 0:00:00.54
Peak level 100.0 %
Extraction speed 4.1 X
Track quality 100.0 %
Test CRC 2C8DB33F
Copy CRC 2C8DB33F
Accurately ripped (confidence 1) [F5B11995] (AR v2)
Copy OK
Track 8
Filename J:\POST\Dayton -‎ Dayton (1980) [2004]\08 Daytime Friend.wav
Pre-gap length 0:00:00.23
Peak level 100.0 %
Extraction speed 4.3 X
Track quality 100.0 %
Test CRC C857A835
Copy CRC C857A835
Accurately ripped (confidence 1) [4969650C] (AR v2)
Copy OK
All tracks accurately ripped
No errors occurred
End of status report
---- CUETools DB Plugin V2.1.6
[CTDB TOCID: l.3_5GCGr_u06XjnZIjluI1bqN0-] found
Submit result: l.3_5GCGr_u06XjnZIjluI1bqN0- has been confirmed
Track | CTDB Status
1 | (1/2) Accurately ripped
2 | (2/2) Accurately ripped
3 | (2/2) Accurately ripped
4 | (2/2) Accurately ripped
5 | (2/2) Accurately ripped
6 | (2/2) Accurately ripped
7 | (2/2) Accurately ripped
8 | (2/2) Accurately ripped
==== Log checksum D3614BC559127711FA0419B06682D303241287E8F473C8510A7F00154100F26B ====
 
Содержание индексной карты (.CUE)
REM GENRE Funk
REM DATE 1980
REM DISCID 66098908
REM COMMENT "ExactAudioCopy v1.3"
PERFORMER "Dayton"
TITLE "Dayton"
FILE "01 Dank.wav" WAVE
TRACK 01 AUDIO
TITLE "Dank"
PERFORMER "Dayton"
PREGAP 00:00:36
INDEX 01 00:00:00
TRACK 02 AUDIO
TITLE "Eyes On You"
PERFORMER "Dayton"
INDEX 00 03:47:73
FILE "02 Eyes On You.wav" WAVE
INDEX 01 00:00:00
FILE "03 Let Go.wav" WAVE
TRACK 03 AUDIO
TITLE "Let Go"
PERFORMER "Dayton"
INDEX 01 00:00:00
FILE "04 Tonight.wav" WAVE
TRACK 04 AUDIO
TITLE "Tonight"
PERFORMER "Dayton"
INDEX 01 00:00:00
TRACK 05 AUDIO
TITLE "Dayton (Jam)"
PERFORMER "Dayton"
INDEX 00 04:35:64
FILE "05 Dayton (Jam).wav" WAVE
INDEX 01 00:00:00
TRACK 06 AUDIO
TITLE "Livin' For Today"
PERFORMER "Dayton"
INDEX 00 05:36:66
FILE "06 Livin' For Today.wav" WAVE
INDEX 01 00:00:00
TRACK 07 AUDIO
TITLE "So Glad"
PERFORMER "Dayton"
INDEX 00 05:15:39
FILE "07 So Glad.wav" WAVE
INDEX 01 00:00:00
TRACK 08 AUDIO
TITLE "Daytime Friend"
PERFORMER "Dayton"
INDEX 00 04:48:43
FILE "08 Daytime Friend.wav" WAVE
INDEX 01 00:00:00
Приватный:
Нет (DHT включён)
Размер:
356.49 Мб (373,808,760 байт) » файлов: 22
Участники:
0 раздают, 0 качают (0 участников всего)
Внешние участники:
2 раздают, 1 качают (3 участников всего) [ Обновить ]
Есть вопросы - пишите личное сообщение пользователю M0p94ok.
13:29
88
Нет комментариев. Ваш будет первым!