Поиск

(Funk, Soul, Disco) [CD] Dayton - Hot Fun (1982) - 2004, FLAC (tracks+.cue), lossless

(Funk, Soul, Disco) [CD] Dayton - Hot Fun (1982) - 2004, FLAC (tracks+.cue), lossless
Треклист:
Dayton - Hot Fun (1982) Жанр: Funk, Soul, Disco
Носитель: CD
Год издания: 2004
Издатель (лейбл): EMI
Номер по каталогу: 072435789002
Аудиокодек: FLAC (*.flac)
Тип рипа: tracks+.cue
Битрейт аудио: lossless
Продолжительность: 43:02
Rip by JET 1
Наличие сканов в содержимом раздачи: да
Треклист:
01. Hot Fun In The Summertime (5:24)
02. We Can't Miss (4:48)
03. Patiently (5:35)
04. Krackity-Krack (5:36)
05. Meet The Man (5:53)
06. Gunch (5:21)
07. Never Repay Your Love (4:40)
08. Movin' Up (5:01)
09. Movin' Up Reprise (0:44)
 
 
Об альбоме (сборнике)
Hot Fun is the third album from Dayton with the ever-popular rendition of Sly and the Family Stone's 1969 classic song Hot Fun in the Summertime. The album was moderate yet well received by Billboard critics for its cool skating and stepper’s groove and set amidst some jazzy riffing and ensemble vocals that are totally great as well as the rest of the album with its excellent bouncy and joyous mode, with mixed male and female vocals .The group moved from their previous label, Liberty to Capitol Records. The album also features "Krackity Krack" with another Dayton native, Bootsy Collins and the funk and jazzy "Movin' Up". Other major hits include the bouncy and funky “We Can’t Miss”, the danceable single “Meet The Man”, funky tune of "Gunch" and the slow jam "Patiently".

 
Лог создания рипа
Exact Audio Copy V1.3 from 2. September 2016
EAC extraction logfile from 4. January 2017, 18:54
Dayton / Hot Fun
Used drive : GENERIC CDRCB05 Adapter: 1 ID: 1
Read mode : Secure
Utilize accurate stream : Yes
Defeat audio cache : Yes
Make use of C2 pointers : No
Read offset correction : 102
Overread into Lead-In and Lead-Out : No
Fill up missing offset samples with silence : Yes
Delete leading and trailing silent blocks : No
Null samples used in CRC calculations : Yes
Used interface : Native Win32 interface for Win NT & 2000
Gap handling : Appended to previous track
Used output format : User Defined Encoder
Selected bitrate : 768 kBit/s
Quality : High
Add ID3 tag : No
Command line compressor : C:\Program Files (x86)\Exact Audio Copy\FLAC\FLAC.EXE
Additional command line options : -6 -V -T "ARTIST=%artist%" -T "TITLE=%title%" -T "ALBUM=%albumtitle%" -T "DATE=%year%" -T "TRACKNUMBER=%tracknr%" -T "GENRE=%genre%" -T "COMMENT=%comment%" -T "BAND=%albuminterpret%" -T "ALBUMARTIST=%albuminterpret%" -T "COMPOSER=%composer%" %haslyrics%--tag-from-file=LYRICS="%lyricsfile%"%haslyrics% -T "DISCNUMBER=%cdnumber%" -T "TOTALDISCS=%totalcds%" -T "TOTALTRACKS=%numtracks%" %hascover%--picture="%coverfile%"%hascover% %source% -o %dest%
TOC of the extracted CD
Track | Start | Length | Start sector | End sector
---------------------------------------------------------
1 | 0:00.36 | 5:23.64 | 36 | 24324
2 | 5:24.25 | 4:47.74 | 24325 | 45923
3 | 10:12.24 | 5:35.21 | 45924 | 71069
4 | 15:47.45 | 5:36.34 | 71070 | 96303
5 | 21:24.04 | 5:53.04 | 96304 | 122782
6 | 27:17.08 | 5:20.49 | 122783 | 146831
7 | 32:37.57 | 4:40.03 | 146832 | 167834
8 | 37:17.60 | 5:01.35 | 167835 | 190444
9 | 42:19.20 | 0:43.44 | 190445 | 193713
Track 1
Filename J:\POST\Dayton ‎- Hot Fun (1982) [2004]\01 Hot Fun In The Summertime.wav
Pre-gap length 0:00:02.36
Peak level 100.0 %
Extraction speed 1.5 X
Track quality 100.0 %
Test CRC DA7F33CD
Copy CRC DA7F33CD
Accurately ripped (confidence 1) [AADA4391] (AR v2)
Copy OK
Track 2
Filename J:\POST\Dayton ‎- Hot Fun (1982) [2004]\02 We Can't Miss.wav
Peak level 100.0 %
Extraction speed 1.7 X
Track quality 100.0 %
Test CRC 8CE0BCED
Copy CRC 8CE0BCED
Accurately ripped (confidence 1) [B25F957F] (AR v2)
Copy OK
Track 3
Filename J:\POST\Dayton ‎- Hot Fun (1982) [2004]\03 Patiently.wav
Peak level 100.0 %
Extraction speed 1.8 X
Track quality 99.9 %
Test CRC 5B310074
Copy CRC 5B310074
Accurately ripped (confidence 1) [5C90AFC1] (AR v2)
Copy OK
Track 4
Filename J:\POST\Dayton ‎- Hot Fun (1982) [2004]\04 Krackity-Krack.wav
Peak level 100.0 %
Extraction speed 2.2 X
Track quality 100.0 %
Test CRC A21045FD
Copy CRC A21045FD
Accurately ripped (confidence 1) [6FB43926] (AR v2)
Copy OK
Track 5
Filename J:\POST\Dayton ‎- Hot Fun (1982) [2004]\05 Meet The Man.wav
Peak level 100.0 %
Extraction speed 2.3 X
Track quality 100.0 %
Test CRC 340652DB
Copy CRC 340652DB
Accurately ripped (confidence 1) [CC2B4F7F] (AR v2)
Copy OK
Track 6
Filename J:\POST\Dayton ‎- Hot Fun (1982) [2004]\06 Gunch.wav
Peak level 100.0 %
Extraction speed 2.4 X
Track quality 100.0 %
Test CRC A22BF433
Copy CRC A22BF433
Accurately ripped (confidence 1) [90A68269] (AR v2)
Copy OK
Track 7
Filename J:\POST\Dayton ‎- Hot Fun (1982) [2004]\07 Never Repay Your Love.wav
Peak level 100.0 %
Extraction speed 2.5 X
Track quality 100.0 %
Test CRC 7F52BF2F
Copy CRC 7F52BF2F
Accurately ripped (confidence 1) [4F705A34] (AR v2)
Copy OK
Track 8
Filename J:\POST\Dayton ‎- Hot Fun (1982) [2004]\08 Movin' Up.wav
Peak level 100.0 %
Extraction speed 2.4 X
Track quality 99.9 %
Test CRC E1B387F0
Copy CRC E1B387F0
Accurately ripped (confidence 1) [8261A58C] (AR v2)
Copy OK
Track 9
Filename J:\POST\Dayton ‎- Hot Fun (1982) [2004]\09 Movin' Up Reprise.wav
Peak level 100.0 %
Extraction speed 1.6 X
Track quality 100.0 %
Test CRC 3CC0D803
Copy CRC 3CC0D803
Accurately ripped (confidence 1) [381E363D] (AR v2)
Copy OK
All tracks accurately ripped
No errors occurred
End of status report
---- CUETools DB Plugin V2.1.6
[CTDB TOCID: cqKrg283NU.CY3Y520T41382bfA-] found
Submit result: cqKrg283NU.CY3Y520T41382bfA- has been confirmed
Track | CTDB Status
1 | (2/4) Accurately ripped
2 | (2/4) Accurately ripped
3 | (2/4) Accurately ripped
4 | (2/4) Accurately ripped
5 | (2/4) Accurately ripped
6 | (2/4) Accurately ripped
7 | (2/4) Accurately ripped
8 | (2/4) Accurately ripped
9 | (2/4) Accurately ripped
==== Log checksum 2FDED428DF0E71D1FD98BD481B34827275F4EFEFA91F06F80DA910A03A7CBE9D ====
 
Содержание индексной карты (.CUE)
REM GENRE Soul
REM DATE 1982
REM DISCID 860A1609
REM COMMENT "ExactAudioCopy v1.3"
PERFORMER "Dayton"
TITLE "Hot Fun"
REM COMPOSER ""
FILE "01 Hot Fun In The Summertime.wav" WAVE
TRACK 01 AUDIO
TITLE "Hot Fun In The Summertime"
PERFORMER "Dayton"
REM COMPOSER ""
PREGAP 00:00:36
INDEX 01 00:00:00
FILE "02 We Can't Miss.wav" WAVE
TRACK 02 AUDIO
TITLE "We Can't Miss"
PERFORMER "Dayton"
REM COMPOSER ""
INDEX 01 00:00:00
FILE "03 Patiently.wav" WAVE
TRACK 03 AUDIO
TITLE "Patiently"
PERFORMER "Dayton"
REM COMPOSER ""
INDEX 01 00:00:00
FILE "04 Krackity-Krack.wav" WAVE
TRACK 04 AUDIO
TITLE "Krackity-Krack"
PERFORMER "Dayton"
REM COMPOSER ""
INDEX 01 00:00:00
FILE "05 Meet The Man.wav" WAVE
TRACK 05 AUDIO
TITLE "Meet The Man"
PERFORMER "Dayton"
REM COMPOSER ""
INDEX 01 00:00:00
FILE "06 Gunch.wav" WAVE
TRACK 06 AUDIO
TITLE "Gunch"
PERFORMER "Dayton"
REM COMPOSER ""
INDEX 01 00:00:00
FILE "07 Never Repay Your Love.wav" WAVE
TRACK 07 AUDIO
TITLE "Never Repay Your Love"
PERFORMER "Dayton"
REM COMPOSER ""
INDEX 01 00:00:00
FILE "08 Movin' Up.wav" WAVE
TRACK 08 AUDIO
TITLE "Movin' Up"
PERFORMER "Dayton"
REM COMPOSER ""
INDEX 01 00:00:00
FILE "09 Movin' Up Reprise.wav" WAVE
TRACK 09 AUDIO
TITLE "Movin' Up Reprise"
PERFORMER "Dayton"
REM COMPOSER ""
INDEX 01 00:00:00
Приватный:
Нет (DHT включён)
Размер:
370.08 Мб (388,060,161 байт) » файлов: 23
Участники:
0 раздают, 0 качают (0 участников всего)
Внешние участники:
2 раздают, 1 качают (3 участников всего) [ Обновить ]
Есть вопросы - пишите личное сообщение пользователю M0p94ok.
13:30
70
Нет комментариев. Ваш будет первым!