Поиск

(Funk, Soul, Disco) [CD] Atlantic Starr - Time - 1994, FLAC (tracks+.cue), lossless

(Funk, Soul, Disco) [CD] Atlantic Starr - Time - 1994, FLAC (tracks+.cue), lossless
Треклист:
Atlantic Starr - Time
Жанр: Funk, Soul, Disco
Носитель: CD
Страна-производитель диска (релиза): США
Год издания: 1994
Издатель (лейбл): Arista
Номер по каталогу: 07822-18723-2
Аудиокодек: FLAC (*.flac)
Тип рипа: tracks+.cue
Битрейт аудио: lossless
Продолжительность: 43:37
Источник (релизер): What.CD
Наличие сканов в содержимом раздачи: нет
Треклист:
01. I'll Remember You (4:22)
02. Everybody's Got Summer (4:33)
03. My Best Friend (4:51)
04. Time (4:49)
05. Baby Be There (3:50)
06. Let's Just Sneak Around (4:21)
07. So Good to Come Home To (4:03)
08. Lovin' You All Over Again (4:59)
09. Animal Attraction (4:29)
10. Along the Way (3:20)
 
Лог создания рипа
X Lossless Decoder version 20100918 (122.1)
XLD extraction logfile from 2010-09-18 00:22:12 -0500
Atlantic Starr / Time
Used drive : MATSHITA DVD-R UJ-857E (revision ZA0E)
Use cdparanoia mode : YES (CDParanoia III 10.2 engine)
Disable audio cache : OK for the drive with cache less than 2750KB
Make use of C2 pointers : NO
Read offset correction : 102
Max retry count : 100
Gap status : Analyzed, Appended
TOC of the extracted CD
Track | Start | Length | Start sector | End sector
---------------------------------------------------------
1 | 00:00:00 | 04:21:65 | 0 | 19639
2 | 04:21:65 | 04:32:68 | 19640 | 40107
3 | 08:54:58 | 04:50:65 | 40108 | 61922
4 | 13:45:48 | 04:49:00 | 61923 | 83597
5 | 18:34:48 | 03:50:20 | 83598 | 100867
6 | 22:24:68 | 04:21:20 | 100868 | 120462
7 | 26:46:13 | 04:02:52 | 120463 | 138664
8 | 30:48:65 | 04:58:53 | 138665 | 161067
9 | 35:47:43 | 04:28:47 | 161068 | 181214
10 | 40:16:15 | 03:19:58 | 181215 | 196197
All Tracks
Album gain : -5.38 dB
Peak : 1.000000
Track 01
Filename : /Uploads/Atlantic Starr - Time (FLAC)/01. Atlantic Starr - I'll Remember You.flac
Pre-gap length : 00:02:00
Track gain : -6.14 dB
Peak : 1.000000
CRC32 hash (test run) : 7FAAC113
CRC32 hash : 7FAAC113
CRC32 hash (skip zero) : 93A3355A
AccurateRip signature : 88BEC5F1
->Accurately ripped! (confidence 1)
Statistics
Read error : 0
Skipped (treated as error) : 0
Edge jitter error (maybe fixed) : 0
Atom jitter error (maybe fixed) : 0
Drift error (maybe fixed) : 0
Dropped bytes error (maybe fixed) : 0
Duplicated bytes error (maybe fixed) : 0
Inconsistency in error sectors : 0
Track 02
Filename : /Uploads/Atlantic Starr - Time (FLAC)/02. Atlantic Starr - Everybody's Got Summer.flac
Track gain : -5.72 dB
Peak : 1.000000
CRC32 hash (test run) : 36E54605
CRC32 hash : 36E54605
CRC32 hash (skip zero) : 9BDC69E5
AccurateRip signature : 7D930C67
->Accurately ripped! (confidence 1)
Statistics
Read error : 0
Skipped (treated as error) : 0
Edge jitter error (maybe fixed) : 0
Atom jitter error (maybe fixed) : 0
Drift error (maybe fixed) : 0
Dropped bytes error (maybe fixed) : 0
Duplicated bytes error (maybe fixed) : 0
Inconsistency in error sectors : 0
Track 03
Filename : /Uploads/Atlantic Starr - Time (FLAC)/03. Atlantic Starr - My Best Friend.flac
Pre-gap length : 00:01:03
Track gain : -6.05 dB
Peak : 1.000000
CRC32 hash (test run) : 31250C33
CRC32 hash : 31250C33
CRC32 hash (skip zero) : 2651BBB1
AccurateRip signature : 326C9D71
->Accurately ripped! (confidence 1)
Statistics
Read error : 0
Skipped (treated as error) : 0
Edge jitter error (maybe fixed) : 0
Atom jitter error (maybe fixed) : 0
Drift error (maybe fixed) : 0
Dropped bytes error (maybe fixed) : 0
Duplicated bytes error (maybe fixed) : 0
Inconsistency in error sectors : 0
Track 04
Filename : /Uploads/Atlantic Starr - Time (FLAC)/04. Atlantic Starr - Time.flac
Pre-gap length : 00:01:05
Track gain : -4.19 dB
Peak : 1.000000
CRC32 hash (test run) : 2723F528
CRC32 hash : 2723F528
CRC32 hash (skip zero) : FF981521
AccurateRip signature : 70B9ABC3
->Accurately ripped! (confidence 1)
Statistics
Read error : 0
Skipped (treated as error) : 0
Edge jitter error (maybe fixed) : 0
Atom jitter error (maybe fixed) : 0
Drift error (maybe fixed) : 0
Dropped bytes error (maybe fixed) : 0
Duplicated bytes error (maybe fixed) : 0
Inconsistency in error sectors : 0
Track 05
Filename : /Uploads/Atlantic Starr - Time (FLAC)/05. Atlantic Starr - Baby Be There.flac
Pre-gap length : 00:01:05
Track gain : -6.08 dB
Peak : 1.000000
CRC32 hash (test run) : 3759CF49
CRC32 hash : 3759CF49
CRC32 hash (skip zero) : 3DA5D9C4
AccurateRip signature : 23EC10BB
->Accurately ripped! (confidence 1)
Statistics
Read error : 0
Skipped (treated as error) : 0
Edge jitter error (maybe fixed) : 0
Atom jitter error (maybe fixed) : 0
Drift error (maybe fixed) : 0
Dropped bytes error (maybe fixed) : 0
Duplicated bytes error (maybe fixed) : 0
Inconsistency in error sectors : 0
Track 06
Filename : /Uploads/Atlantic Starr - Time (FLAC)/06. Atlantic Starr - Let's Just Sneak Around.flac
Pre-gap length : 00:01:50
Track gain : -5.25 dB
Peak : 1.000000
CRC32 hash (test run) : 3718F078
CRC32 hash : 3718F078
CRC32 hash (skip zero) : 589F3A2B
AccurateRip signature : 19FA18EE
->Accurately ripped! (confidence 1)
Statistics
Read error : 0
Skipped (treated as error) : 0
Edge jitter error (maybe fixed) : 0
Atom jitter error (maybe fixed) : 0
Drift error (maybe fixed) : 0
Dropped bytes error (maybe fixed) : 0
Duplicated bytes error (maybe fixed) : 0
Inconsistency in error sectors : 0
Track 07
Filename : /Uploads/Atlantic Starr - Time (FLAC)/07. Atlantic Starr - So Good To Come Home To.flac
Pre-gap length : 00:01:03
Track gain : -5.14 dB
Peak : 1.000000
CRC32 hash (test run) : 96AB6093
CRC32 hash : 96AB6093
CRC32 hash (skip zero) : 7822FE22
AccurateRip signature : 429EFC84
->Accurately ripped! (confidence 1)
Statistics
Read error : 0
Skipped (treated as error) : 0
Edge jitter error (maybe fixed) : 0
Atom jitter error (maybe fixed) : 0
Drift error (maybe fixed) : 0
Dropped bytes error (maybe fixed) : 0
Duplicated bytes error (maybe fixed) : 0
Inconsistency in error sectors : 0
Track 08
Filename : /Uploads/Atlantic Starr - Time (FLAC)/08. Atlantic Starr - Lovin' You All Over Again.flac
Pre-gap length : 00:00:60
Track gain : -5.41 dB
Peak : 1.000000
CRC32 hash (test run) : 28C46E3A
CRC32 hash : 28C46E3A
CRC32 hash (skip zero) : C1498C02
AccurateRip signature : 3F246786
->Accurately ripped! (confidence 1)
Statistics
Read error : 0
Skipped (treated as error) : 0
Edge jitter error (maybe fixed) : 0
Atom jitter error (maybe fixed) : 0
Drift error (maybe fixed) : 0
Dropped bytes error (maybe fixed) : 0
Duplicated bytes error (maybe fixed) : 0
Inconsistency in error sectors : 0
Track 09
Filename : /Uploads/Atlantic Starr - Time (FLAC)/09. Atlantic Starr - Animal Attraction.flac
Pre-gap length : 00:00:60
Track gain : -4.25 dB
Peak : 1.000000
CRC32 hash (test run) : 03C38464
CRC32 hash : 03C38464
CRC32 hash (skip zero) : 56FC811F
AccurateRip signature : 23633577
->Accurately ripped! (confidence 1)
Statistics
Read error : 0
Skipped (treated as error) : 0
Edge jitter error (maybe fixed) : 0
Atom jitter error (maybe fixed) : 0
Drift error (maybe fixed) : 0
Dropped bytes error (maybe fixed) : 0
Duplicated bytes error (maybe fixed) : 0
Inconsistency in error sectors : 0
Track 10
Filename : /Uploads/Atlantic Starr - Time (FLAC)/10. Atlantic Starr - Along the Way.flac
Pre-gap length : 00:01:05
Track gain : -4.40 dB
Peak : 0.999969
CRC32 hash (test run) : B7115B53
CRC32 hash : B7115B53
CRC32 hash (skip zero) : F9F095D6
AccurateRip signature : 80CB4EB2
->Accurately ripped! (confidence 1)
Statistics
Read error : 0
Skipped (treated as error) : 0
Edge jitter error (maybe fixed) : 0
Atom jitter error (maybe fixed) : 0
Drift error (maybe fixed) : 0
Dropped bytes error (maybe fixed) : 0
Duplicated bytes error (maybe fixed) : 0
Inconsistency in error sectors : 0
No errors occurred
End of status report
 
Содержание индексной карты (.CUE)
TITLE "Time"
PERFORMER "Atlantic Starr"
REM GENRE "R&B"
REM DATE 1994
REM DISCID 7F0A370A
FILE "01 - I'll Remember You.wav" WAVE
TRACK 01 AUDIO
TITLE "I'll Remember You"
INDEX 01 00:00:00
FILE "02 - Everybody's Got Summer.wav" WAVE
TRACK 02 AUDIO
TITLE "Everybody's Got Summer"
INDEX 01 00:00:00
TRACK 03 AUDIO
TITLE "My Best Friend"
INDEX 00 04:31:65
FILE "03 - My Best Friend.wav" WAVE
INDEX 01 00:00:00
TRACK 04 AUDIO
TITLE "Time"
INDEX 00 04:49:60
FILE "04 - Time.wav" WAVE
INDEX 01 00:00:00
TRACK 05 AUDIO
TITLE "Baby Be There"
INDEX 00 04:47:70
FILE "05 - Baby Be There.wav" WAVE
INDEX 01 00:00:00
TRACK 06 AUDIO
TITLE "Let's Just Sneak Around"
INDEX 00 03:48:45
FILE "06 - Let's Just Sneak Around.wav" WAVE
INDEX 01 00:00:00
TRACK 07 AUDIO
TITLE "So Good to Come Home To"
INDEX 00 04:20:17
FILE "07 - So Good to Come Home To.wav" WAVE
INDEX 01 00:00:00
TRACK 08 AUDIO
TITLE "Lovin' You All Over Again"
INDEX 00 04:01:67
FILE "08 - Lovin' You All Over Again.wav" WAVE
INDEX 01 00:00:00
TRACK 09 AUDIO
TITLE "Animal Attraction"
INDEX 00 04:57:68
FILE "09 - Animal Attraction.wav" WAVE
INDEX 01 00:00:00
TRACK 10 AUDIO
TITLE "Along the Way"
INDEX 00 04:27:42
FILE "10 - Along the Way.wav" WAVE
INDEX 01 00:00:00
 
Отчет CUETools
[CUETools log; Date: 06.06.2017 2:04:36; Version: 2.1.5]
[CTDB TOCID: Tvh8C91h_KIlZyYArvCf_FFpDG0-] found.
Track | CTDB Status
1 | (2/2) Accurately ripped
2 | (2/2) Accurately ripped
3 | (2/2) Accurately ripped
4 | (2/2) Accurately ripped
5 | (2/2) Accurately ripped
6 | (2/2) Accurately ripped
7 | (2/2) Accurately ripped
8 | (2/2) Accurately ripped
9 | (2/2) Accurately ripped
10 | (2/2) Accurately ripped
[AccurateRip ID: 0010d782-008652b4-7f0a370a] found.
Track [ CRC | V2 ] Status
01 [88bec5f1|b5ab5d04] (1+1/3) Accurately ripped
02 [7d930c67|2e2e3ceb] (1+1/3) Accurately ripped
03 [326c9d71|29d55690] (0+2/2) Accurately ripped
04 [70b9abc3|c1489122] (0+2/2) Accurately ripped
05 [23ec10bb|76f7152f] (0+2/2) Accurately ripped
06 [19fa18ee|53d324fd] (0+2/2) Accurately ripped
07 [429efc84|97ac9fbf] (0+2/2) Accurately ripped
08 [3f246786|c7763f66] (0+2/2) Accurately ripped
09 [23633577|5f09e14d] (0+2/2) Accurately ripped
10 [80cb4eb2|8a9a41c1] (0+2/2) Accurately ripped
Track Peak [ CRC32 ] [W/O NULL]
-- 100,0 [A5EB600A] [709D7EDD]
01 100,0 [7FAAC113] [93A3355A]
02 100,0 [36E54605] [9BDC69E5]
03 100,0 [31250C33] [2651BBB1]
04 100,0 [2723F528] [FF981521]
05 100,0 [3759CF49] [3DA5D9C4]
06 100,0 [3718F078] [589F3A2B]
07 100,0 [96AB6093] [7822FE22]
08 100,0 [28C46E3A] [C1498C02]
09 100,0 [03C38464] [56FC811F]
10 100,0 [B7115B53] [F9F095D6]
 
AllMusic Review by Craig Lytle
Considered one of the top R&B bands since the genre's inception, this effort is primarily one pop number after another aimed at the adult contemporary market. Since the release of their 1985 classic "Secret Lovers" (#3 Billboard pop charts), Atlantic Starr has geared much of their material toward the crossover market. This project follows suit with the exception of a few cuts. The leadoff single "I'll Remember You" struggled on the Billboard R&B and pop charts, peaking at #58 and #55 respectively. Aside from its semi-catchy chorus, the song's ignition stalls. "Let's Just Sneak Around" has a soulful, urban feel enhanced by Wayne Lewis' gritty delivery. "Everybody's Got Summer," which pairs David Lewis and featured female vocalist Aisha Tanner, has an attractive beat, but it is charged by a sample from Young-Holt Unlimited's "Soulful Strut." The one song that comes close to that magic the group created in their heyday is "Lovin' You All Over Again." The two brothers duel this one out with entertaining lyrics and climaxing in a dramatic vamp.
Приватный:
Нет (DHT включён)
Размер:
297.82 Мб (312,287,944 байт) » файлов: 18
Участники:
0 раздают, 1 качают (1 участников всего)
Внешние участники:
1 раздают, 0 качают (1 участников всего) [ Обновить ]
No seeders - write a personal message to user M0p94ok. Нет сидеров - пишите личное сообщение пользователю M0p94ok.
13:48
195
Нет комментариев. Ваш будет первым!