Поиск

(Funk, Soul, Disco) [CD] Atlantic Starr - Secret Lovers... The Best of Atlantic Starr - 1986, FLAC (tracks+.cue), lossless

(Funk, Soul, Disco) [CD] Atlantic Starr - Secret Lovers... The Best of Atlantic Starr - 1986, FLAC (tracks+.cue), lossless
Треклист:
Atlantic Starr - Secret Lovers... The Best of Atlantic Starr
Жанр: Funk, Soul, Disco
Носитель: CD
Год издания: 1986
Издатель (лейбл): A&M Records
Аудиокодек: FLAC (*.flac)
Тип рипа: tracks+.cue
Битрейт аудио: lossless
Продолжительность: 58:46
Источник (релизер): AJ Productions
Наличие сканов в содержимом раздачи: нет
Треклист:
01. Circles (4:55)
02. Silver Shadow (4:58)
03. Send for Me (5:32)
04. Secret Lovers (5:31)
05. Love Me Down (4:52)
06. When Love Calls (4:35)
07. Am I Dreaming (5:38)
08. Freak-A-Ristic (4:08)
09. Touch a Four Leaf Clover (4:42)
10. Let's Get Closer (5:22)
11. If Your Heart Isn't in It (4:04)
12. Stand Up (4:29)
 
Лог создания рипа
Exact Audio Copy V0.99 prebeta 5 from 4. May 2009
EAC extraction logfile from 4. August 2010, 3:05
Atlantic Starr / Secret Lovers...The Best Of Atlantic Starr
Used drive : HP DVD Writer 1270d Adapter: 5 ID: 0
Read mode : Secure
Utilize accurate stream : Yes
Defeat audio cache : Yes
Make use of C2 pointers : No
Read offset correction : 6
Overread into Lead-In and Lead-Out : No
Fill up missing offset samples with silence : Yes
Delete leading and trailing silent blocks : No
Null samples used in CRC calculations : Yes
Used interface : Installed external ASPI interface
Gap handling : Appended to previous track
Used output format : User Defined Encoder
Selected bitrate : 128 kBit/s
Quality : High
Add ID3 tag : No
Command line compressor : C:\Program Files\Exact Audio Copy\Flac\flac.exe
Additional command line options : -8 -A tukey(0.25) -A gauss(0.1875) -b 4096 -V -T "artist=%a" -T "title=%t" -T "album=%g" -T "date=%y" -T "tracknumber=%n" -T "genre=%m" %s --sector-align
TOC of the extracted CD
Track | Start | Length | Start sector | End sector
---------------------------------------------------------
1 | 0:00.00 | 4:54.45 | 0 | 22094
2 | 4:54.45 | 4:57.65 | 22095 | 44434
3 | 9:52.35 | 5:31.60 | 44435 | 69319
4 | 15:24.20 | 5:30.45 | 69320 | 94114
5 | 20:54.65 | 4:52.17 | 94115 | 116031
6 | 25:47.07 | 4:34.63 | 116032 | 136644
7 | 30:21.70 | 5:38.07 | 136645 | 162001
8 | 36:00.02 | 4:08.28 | 162002 | 180629
9 | 40:08.30 | 4:41.72 | 180630 | 201776
10 | 44:50.27 | 5:21.68 | 201777 | 225919
11 | 50:12.20 | 4:03.45 | 225920 | 244189
12 | 54:15.65 | 4:29.20 | 244190 | 264384
Track 1
Filename F:\Music Place\FLAC & WAV\ATLANTIC STARR\Atlantic Starr - Secret Lovers...The Best Of Atlantic Starr ()1986)\01. Atlantic Starr - Circles.wav
Pre-gap length 0:00:02.00
Peak level 87.4 %
Track quality 100.0 %
Test CRC B38D736B
Copy CRC B38D736B
Accurately ripped (confidence 5) [84893D84]
Copy OK
Track 2
Filename F:\Music Place\FLAC & WAV\ATLANTIC STARR\Atlantic Starr - Secret Lovers...The Best Of Atlantic Starr ()1986)\02. Atlantic Starr - Silver Shadow.wav
Pre-gap length 0:00:01.10
Peak level 79.1 %
Track quality 99.9 %
Test CRC 6CBB5592
Copy CRC 6CBB5592
Accurately ripped (confidence 5) [B030A297]
Copy OK
Track 3
Filename F:\Music Place\FLAC & WAV\ATLANTIC STARR\Atlantic Starr - Secret Lovers...The Best Of Atlantic Starr ()1986)\03. Atlantic Starr - Send For Me.wav
Pre-gap length 0:00:01.13
Peak level 100.0 %
Track quality 100.0 %
Test CRC 49CCB8BA
Copy CRC 49CCB8BA
Accurately ripped (confidence 5) [3A9AFD92]
Copy OK
Track 4
Filename F:\Music Place\FLAC & WAV\ATLANTIC STARR\Atlantic Starr - Secret Lovers...The Best Of Atlantic Starr ()1986)\04. Atlantic Starr - Secret Lovers.wav
Pre-gap length 0:00:01.86
Peak level 75.1 %
Track quality 100.0 %
Test CRC B63617B9
Copy CRC B63617B9
Accurately ripped (confidence 5) [C547638D]
Copy OK
Track 5
Filename F:\Music Place\FLAC & WAV\ATLANTIC STARR\Atlantic Starr - Secret Lovers...The Best Of Atlantic Starr ()1986)\05. Atlantic Starr - Love Me Down.wav
Pre-gap length 0:00:00.50
Peak level 98.0 %
Track quality 99.9 %
Test CRC 57B5FF7D
Copy CRC 57B5FF7D
Accurately ripped (confidence 5) [585FDAA2]
Copy OK
Track 6
Filename F:\Music Place\FLAC & WAV\ATLANTIC STARR\Atlantic Starr - Secret Lovers...The Best Of Atlantic Starr ()1986)\06. Atlantic Starr - When Love Calls.wav
Pre-gap length 0:00:02.29
Peak level 100.0 %
Track quality 100.0 %
Test CRC 6E33D086
Copy CRC 6E33D086
Accurately ripped (confidence 5) [D276BB87]
Copy OK
Track 7
Filename F:\Music Place\FLAC & WAV\ATLANTIC STARR\Atlantic Starr - Secret Lovers...The Best Of Atlantic Starr ()1986)\07. Atlantic Starr - Am I Dreaming.wav
Pre-gap length 0:00:01.73
Peak level 89.9 %
Track quality 100.0 %
Test CRC 09DD26B3
Copy CRC 09DD26B3
Accurately ripped (confidence 5) [E0EBE2E6]
Copy OK
Track 8
Filename F:\Music Place\FLAC & WAV\ATLANTIC STARR\Atlantic Starr - Secret Lovers...The Best Of Atlantic Starr ()1986)\08. Atlantic Starr - Freak-A-Ristic.wav
Pre-gap length 0:00:01.56
Peak level 91.3 %
Track quality 99.9 %
Test CRC 4E116960
Copy CRC 4E116960
Accurately ripped (confidence 5) [6BBA9CCD]
Copy OK
Track 9
Filename F:\Music Place\FLAC & WAV\ATLANTIC STARR\Atlantic Starr - Secret Lovers...The Best Of Atlantic Starr ()1986)\09. Atlantic Starr - Touch A Four Leaf Clover.wav
Pre-gap length 0:00:02.84
Peak level 79.5 %
Track quality 100.0 %
Test CRC 6B359F0A
Copy CRC 6B359F0A
Accurately ripped (confidence 5) [040DA819]
Copy OK
Track 10
Filename F:\Music Place\FLAC & WAV\ATLANTIC STARR\Atlantic Starr - Secret Lovers...The Best Of Atlantic Starr ()1986)\10. Atlantic Starr - Let's Get Closer.wav
Pre-gap length 0:00:01.26
Peak level 90.8 %
Track quality 100.0 %
Test CRC 65F7F26F
Copy CRC 65F7F26F
Accurately ripped (confidence 5) [0951EBD3]
Copy OK
Track 11
Filename F:\Music Place\FLAC & WAV\ATLANTIC STARR\Atlantic Starr - Secret Lovers...The Best Of Atlantic Starr ()1986)\11. Atlantic Starr - If Your Heart Isn't In It.wav
Pre-gap length 0:00:01.24
Peak level 85.6 %
Track quality 100.0 %
Test CRC C2EB4A29
Copy CRC C2EB4A29
Accurately ripped (confidence 5) [2389B0EB]
Copy OK
Track 12
Filename F:\Music Place\FLAC & WAV\ATLANTIC STARR\Atlantic Starr - Secret Lovers...The Best Of Atlantic Starr ()1986)\12. Atlantic Starr - Stand Up.wav
Pre-gap length 0:00:01.33
Peak level 95.5 %
Track quality 100.0 %
Test CRC C20CB02B
Copy CRC C20CB02B
Accurately ripped (confidence 5) [22D38C75]
Copy OK
All tracks accurately ripped
No errors occurred
End of status report
 
Содержание индексной карты (.CUE)
REM GENRE R&B
REM DATE 1986
REM DISCID A30DC50C
REM COMMENT "ExactAudioCopy v0.99pb5"
PERFORMER "Atlantic Starr"
TITLE "Secret Lovers... The Best of Atlantic Starr"
FILE "01 - Circles.wav" WAVE
TRACK 01 AUDIO
TITLE "Circles"
PERFORMER "Atlantic Starr"
INDEX 01 00:00:00
TRACK 02 AUDIO
TITLE "Silver Shadow"
PERFORMER "Atlantic Starr"
INDEX 00 04:53:37
FILE "02 - Silver Shadow.wav" WAVE
INDEX 01 00:00:00
TRACK 03 AUDIO
TITLE "Send for Me"
PERFORMER "Atlantic Starr"
INDEX 00 04:56:55
FILE "03 - Send for Me.wav" WAVE
INDEX 01 00:00:00
TRACK 04 AUDIO
TITLE "Secret Lovers"
PERFORMER "Atlantic Starr"
INDEX 00 05:29:70
FILE "04 - Secret Lovers.wav" WAVE
INDEX 01 00:00:00
TRACK 05 AUDIO
TITLE "Love Me Down"
PERFORMER "Atlantic Starr"
INDEX 00 05:30:07
FILE "05 - Love Me Down.wav" WAVE
INDEX 01 00:00:00
TRACK 06 AUDIO
TITLE "When Love Calls"
PERFORMER "Atlantic Starr"
INDEX 00 04:49:70
FILE "06 - When Love Calls.wav" WAVE
INDEX 01 00:00:00
TRACK 07 AUDIO
TITLE "Am I Dreaming"
PERFORMER "Atlantic Starr"
INDEX 00 04:33:08
FILE "07 - Am I Dreaming.wav" WAVE
INDEX 01 00:00:00
TRACK 08 AUDIO
TITLE "Freak-A-Ristic"
PERFORMER "Atlantic Starr"
INDEX 00 05:36:40
FILE "08 - Freak-A-Ristic.wav" WAVE
INDEX 01 00:00:00
TRACK 09 AUDIO
TITLE "Touch a Four Leaf Clover"
PERFORMER "Atlantic Starr"
INDEX 00 04:05:40
FILE "09 - Touch a Four Leaf Clover.wav" WAVE
INDEX 01 00:00:00
TRACK 10 AUDIO
TITLE "Let's Get Closer"
PERFORMER "Atlantic Starr"
INDEX 00 04:40:52
FILE "10 - Let's Get Closer.wav" WAVE
INDEX 01 00:00:00
TRACK 11 AUDIO
TITLE "If Your Heart Isn't in It"
PERFORMER "Atlantic Starr"
INDEX 00 05:20:50
FILE "11 - If Your Heart Isn't in It.wav" WAVE
INDEX 01 00:00:00
TRACK 12 AUDIO
TITLE "Stand Up"
PERFORMER "Atlantic Starr"
INDEX 00 04:02:20
FILE "12 - Stand Up.wav" WAVE
INDEX 01 00:00:00
 
Отчет CUETools
[CUETools log; Date: 06.06.2017 12:43:46; Version: 2.1.5]
[CTDB TOCID: ifq02gGoCGr65U0XOogDhieanac-] found.
Track | CTDB Status
1 | (12/20) Accurately ripped
2 | (12/20) Accurately ripped
3 | (11/20) Accurately ripped
4 | (12/20) Accurately ripped
5 | (12/20) Accurately ripped
6 | (12/20) Accurately ripped
7 | (12/20) Accurately ripped
8 | (12/20) Accurately ripped
9 | (12/20) Accurately ripped
10 | (12/20) Accurately ripped
11 | (12/20) Accurately ripped
12 | (12/20) Accurately ripped
[AccurateRip ID: 001ae10a-00f9c8ff-a30dc50c] found.
Track [ CRC | V2 ] Status
01 [84893d84|53380694] (06+07/16) Accurately ripped
02 [b030a297|d1ea0298] (06+08/17) Accurately ripped
03 [3a9afd92|a152c38d] (06+08/17) Accurately ripped
04 [c547638d|c9d225f0] (06+08/17) Accurately ripped
05 [585fdaa2|dace021b] (06+08/17) Accurately ripped
06 [d276bb87|8802ff09] (06+08/17) Accurately ripped
07 [e0ebe2e6|831731e2] (06+08/17) Accurately ripped
08 [6bba9ccd|924a1450] (06+08/17) Accurately ripped
09 [040da819|b37137af] (06+08/17) Accurately ripped
10 [0951ebd3|7e4e3cfe] (06+07/16) Accurately ripped
11 [2389b0eb|7ab71095] (06+08/16) Accurately ripped
12 [22d38c75|a26046a0] (06+07/15) Accurately ripped
Track Peak [ CRC32 ] [W/O NULL] [ LOG ]
-- 100,0 [F8FE77F9] [49F025DE]
01 87,4 [B38D736B] [4315CDD6] CRC32
02 79,1 [6CBB5592] [DDE17C55] CRC32
03 100,0 [49CCB8BA] [694047D9] CRC32
04 75,1 [B63617B9] [82344DA6] CRC32
05 98,0 [57B5FF7D] [019A6F38] CRC32
06 100,0 [6E33D086] [ECD21321] CRC32
07 89,9 [09DD26B3] [21DA24B0] CRC32
08 91,3 [4E116960] [BA304467] CRC32
09 79,5 [6B359F0A] [B6CD3D55] CRC32
10 90,8 [65F7F26F] [7F4FD3C9] CRC32
11 85,6 [C2EB4A29] [90A3FBBC] CRC32
12 95,5 [C20CB02B] [CA4CEBEB] CRC32
 
AllMusic Review by Heather Phares
The 1986 compilation Secret Lovers: The Best of Atlantic Starr collects some of the group's biggest songs up to that point, including "If Your Heart Isn't in It," "When Love Calls," "Touch a Four Leaf Clover," and "Silver Shadow." As the title implies, this collection focuses on the softer, romantic side of Atlantic Starr's music rather than their funkier efforts; "Gimme Your Lovin'," "Stand Up," "One Love," and the compilation's title track helped define that side of their sound in the '80s. Though it's not a complete collection of Atlantic Starr's output, Secret Lovers benefits from its selective focus, making it a fine collection of the group's quiet storm moments from their time with A&M.
Приватный:
Нет (DHT включён)
Размер:
342.54 Мб (359,180,946 байт) » файлов: 19
Участники:
0 раздают, 0 качают (0 участников всего)
Внешние участники:
2 раздают, 1 качают (3 участников всего) [ Обновить ]
Есть вопросы - пишите личное сообщение пользователю M0p94ok.
13:49
91
Нет комментариев. Ваш будет первым!