Поиск

(Funk, Soul) [CD] VA - The Sound Of Funk Volume One - 1992, FLAC (tracks+.cue), lossless

(Funk, Soul) [CD] VA - The Sound Of Funk Volume One - 1992, FLAC (tracks+.cue), lossless
Треклист:
Various - The Sound Of Funk Volume One Жанр: Funk, Soul
Носитель: CD
Год издания: 1992
Издатель (лейбл): Goldmine/Soul Supply
Номер по каталогу: GSCD7
Аудиокодек: FLAC (*.flac)
Тип рипа: tracks+.cue
Битрейт аудио: lossless
Продолжительность: 52:21
Источник (релизер): TestTickles
Наличие сканов в содержимом раздачи: да
Треклист:
01. Damph F'aint' (Herb Johnson Settlement) (3:32)
02. The Sad Chicken (Leroy & The Drivers) (2:52)
03. How Long Shall I Wait (James Lewis Fields) (2:28)
04. Hector (The Village Callers) (2:36)
05. Let The Groove Move You (Gus The ''Groove'' Lewis) (2:50)
06. Groovy World (Fabulous Caprices) (3:38)
07. Jan Jan (The Fabulous Counts) (2:23)
08. Iron Leg (Mickey & The Soul Generation) (2:10)
09. You Got To Be A Man (Frank Williams) (2:44)
10. Searchin' For Soul (Jake Wade & The Soul Searchers) (2:40)
11. The Push & Pull (Sons Of Slum) (2:41)
12. Take This Woman Off The Corner (James Spencer) (2:25)
13. Everything's Gonna Be Alright (Robert Moore) (2:35)
14. The Tramp Pt.1 (The Showmen Inc.) (2:15)
15. I'm The Man (Chris Jones) (2:52)
16. The Whip Part 1 (Al Brown) (3:20)
17. You (Spanky Wilson) (2:15)
18. Brother Brown (Camille Bob) (3:06)
19. Happy Soul (Dave Cortez & The Moon People) (2:59)
 
 
Об альбоме (сборнике)
The Sound Of Funk Volume One is a 1992 compilation released by Goldmine in conjunction with Soul Supply. All of the songs are sourced from vinyl records and its legality remains unknown but it was one way to find rare sides of soul that would be normally impossible to locate without compilations like this.

 
Лог создания рипа
Exact Audio Copy V1.1 from 23. June 2015
EAC extraction logfile from 16. March 2017, 9:34
Various Artists / The Sound Of Funk Volume One
Used drive : TEAC DVD-ROM DV-28SW Adapter: 1 ID: 0
Read mode : Secure
Utilize accurate stream : Yes
Defeat audio cache : Yes
Make use of C2 pointers : No
Read offset correction : 6
Overread into Lead-In and Lead-Out : No
Fill up missing offset samples with silence : Yes
Delete leading and trailing silent blocks : No
Null samples used in CRC calculations : Yes
Used interface : Native Win32 interface for Win NT & 2000
Gap handling : Appended to previous track
Used output format : Internal WAV Routines
Sample format : 44.100 Hz; 16 Bit; Stereo
TOC of the extracted CD
Track | Start | Length | Start sector | End sector
---------------------------------------------------------
1 | 0:00.33 | 3:32.10 | 33 | 15942
2 | 3:32.43 | 2:52.27 | 15943 | 28869
3 | 6:24.70 | 2:28.05 | 28870 | 39974
4 | 8:53.00 | 2:36.05 | 39975 | 51679
5 | 11:29.05 | 2:50.25 | 51680 | 64454
6 | 14:19.30 | 3:38.05 | 64455 | 80809
7 | 17:57.35 | 2:22.58 | 80810 | 91517
8 | 20:20.18 | 2:10.12 | 91518 | 101279
9 | 22:30.30 | 2:43.50 | 101280 | 113554
10 | 25:14.05 | 2:39.63 | 113555 | 125542
11 | 27:53.68 | 2:40.50 | 125543 | 137592
12 | 30:34.43 | 2:24.62 | 137593 | 148454
13 | 32:59.30 | 2:35.03 | 148455 | 160082
14 | 35:34.33 | 2:15.00 | 160083 | 170207
15 | 37:49.33 | 2:52.00 | 170208 | 183107
16 | 40:41.33 | 3:20.37 | 183108 | 198144
17 | 44:01.70 | 2:14.38 | 198145 | 208232
18 | 46:16.33 | 3:06.25 | 208233 | 222207
19 | 49:22.58 | 2:58.62 | 222208 | 235619
Track 1
Filename C:\My Documents\My FLAC\VA - The Sound Of Funk Volume One (1992) [FLAC] {Goldmine, Soul Supply}\01 - Herb Johnson Settlement - Damph F'aint'.wav
Pre-gap length 0:00:02.33
Peak level 97.7 %
Extraction speed 2.1 X
Track quality 99.9 %
Test CRC DE110DCE
Copy CRC DE110DCE
Cannot be verified as accurate (confidence 4) [D5590189], AccurateRip returned [AC07D9A2] (AR v2)
Copy OK
Track 2
Filename C:\My Documents\My FLAC\VA - The Sound Of Funk Volume One (1992) [FLAC] {Goldmine, Soul Supply}\02 - Leroy & The Drivers - The Sad Chicken.wav
Pre-gap length 0:00:01.20
Peak level 97.7 %
Extraction speed 2.9 X
Track quality 100.0 %
Test CRC 93101FA6
Copy CRC 93101FA6
Cannot be verified as accurate (confidence 4) [8CB5A504], AccurateRip returned [CADF0469] (AR v2)
Copy OK
Track 3
Filename C:\My Documents\My FLAC\VA - The Sound Of Funk Volume One (1992) [FLAC] {Goldmine, Soul Supply}\03 - James Lewis Fields - How Long Shall I Wait.wav
Pre-gap length 0:00:01.62
Peak level 97.7 %
Extraction speed 1.9 X
Track quality 99.9 %
Test CRC 31FE48BE
Copy CRC 31FE48BE
Cannot be verified as accurate (confidence 4) [3D78A0AE], AccurateRip returned [1F20DE6D] (AR v2)
Copy OK
Track 4
Filename C:\My Documents\My FLAC\VA - The Sound Of Funk Volume One (1992) [FLAC] {Goldmine, Soul Supply}\04 - The Village Callers - Hector.wav
Pre-gap length 0:00:01.49
Peak level 97.7 %
Extraction speed 2.9 X
Track quality 100.0 %
Test CRC BF027FD1
Copy CRC BF027FD1
Cannot be verified as accurate (confidence 4) [2D0C77A4], AccurateRip returned [115F4795] (AR v2)
Copy OK
Track 5
Filename C:\My Documents\My FLAC\VA - The Sound Of Funk Volume One (1992) [FLAC] {Goldmine, Soul Supply}\05 - Gus ''The Groove'' Lewis - Let The Groove Move You.wav
Pre-gap length 0:00:01.26
Peak level 97.7 %
Extraction speed 1.8 X
Track quality 99.9 %
Test CRC E64605A8
Copy CRC E64605A8
Cannot be verified as accurate (confidence 4) [AE2237AC], AccurateRip returned [66C388ED] (AR v2)
Copy OK
Track 6
Filename C:\My Documents\My FLAC\VA - The Sound Of Funk Volume One (1992) [FLAC] {Goldmine, Soul Supply}\06 - Fabulous Caprices - Groovy World.wav
Pre-gap length 0:00:01.27
Peak level 97.7 %
Extraction speed 2.9 X
Track quality 100.0 %
Test CRC 8EAEE83B
Copy CRC 8EAEE83B
Cannot be verified as accurate (confidence 4) [1FCF3D11], AccurateRip returned [995CE13D] (AR v2)
Copy OK
Track 7
Filename C:\My Documents\My FLAC\VA - The Sound Of Funk Volume One (1992) [FLAC] {Goldmine, Soul Supply}\07 - The Fabulous Counts - Jan Jan.wav
Pre-gap length 0:00:01.37
Peak level 97.7 %
Extraction speed 2.8 X
Track quality 99.9 %
Test CRC 1B811349
Copy CRC 1B811349
Cannot be verified as accurate (confidence 4) [A3CCC8AA], AccurateRip returned [5420F8BB] (AR v2)
Copy OK
Track 8
Filename C:\My Documents\My FLAC\VA - The Sound Of Funk Volume One (1992) [FLAC] {Goldmine, Soul Supply}\08 - Mickey & The Soul Generation - Iron Leg.wav
Pre-gap length 0:00:01.50
Peak level 92.8 %
Extraction speed 2.8 X
Track quality 99.9 %
Test CRC D043B623
Copy CRC D043B623
Cannot be verified as accurate (confidence 4) [FE04C46D], AccurateRip returned [DBD22D02] (AR v2)
Copy OK
Track 9
Filename C:\My Documents\My FLAC\VA - The Sound Of Funk Volume One (1992) [FLAC] {Goldmine, Soul Supply}\09 - Frank Williams - You Got To Be A Man.wav
Pre-gap length 0:00:01.39
Peak level 97.6 %
Extraction speed 3.2 X
Track quality 99.9 %
Test CRC D4E5BE2D
Copy CRC D4E5BE2D
Cannot be verified as accurate (confidence 4) [47ABED84], AccurateRip returned [E0F43B21] (AR v2)
Copy OK
Track 10
Filename C:\My Documents\My FLAC\VA - The Sound Of Funk Volume One (1992) [FLAC] {Goldmine, Soul Supply}\10 - Jake Wade & The Soul Searchers - Searchin' For Soul.wav
Pre-gap length 0:00:01.31
Peak level 92.8 %
Extraction speed 4.0 X
Track quality 100.0 %
Test CRC 61A1BD42
Copy CRC 61A1BD42
Cannot be verified as accurate (confidence 4) [754103FF], AccurateRip returned [891F05D5] (AR v2)
Copy OK
Track 11
Filename C:\My Documents\My FLAC\VA - The Sound Of Funk Volume One (1992) [FLAC] {Goldmine, Soul Supply}\11 - Sons Of Slum - The Push & Pull.wav
Pre-gap length 0:00:01.70
Peak level 97.7 %
Extraction speed 3.3 X
Track quality 99.9 %
Test CRC 34490F6C
Copy CRC 34490F6C
Cannot be verified as accurate (confidence 4) [583DAD77], AccurateRip returned [6D7F597B] (AR v2)
Copy OK
Track 12
Filename C:\My Documents\My FLAC\VA - The Sound Of Funk Volume One (1992) [FLAC] {Goldmine, Soul Supply}\12 - James Spencer - Take This Woman Off The Corner.wav
Pre-gap length 0:00:02.29
Peak level 97.7 %
Extraction speed 4.3 X
Track quality 100.0 %
Test CRC BF4AAF49
Copy CRC BF4AAF49
Cannot be verified as accurate (confidence 4) [B473168D], AccurateRip returned [27948CCB] (AR v2)
Copy OK
Track 13
Filename C:\My Documents\My FLAC\VA - The Sound Of Funk Volume One (1992) [FLAC] {Goldmine, Soul Supply}\13 - Robert Moore - Everything's Gonna Be Alright.wav
Pre-gap length 0:00:02.07
Peak level 97.7 %
Extraction speed 3.4 X
Track quality 99.9 %
Test CRC 1D924BCC
Copy CRC 1D924BCC
Cannot be verified as accurate (confidence 4) [4009003B], AccurateRip returned [94A85B74] (AR v2)
Copy OK
Track 14
Filename C:\My Documents\My FLAC\VA - The Sound Of Funk Volume One (1992) [FLAC] {Goldmine, Soul Supply}\14 - The Showmen Inc. - The Tramp Pt.1.wav
Pre-gap length 0:00:01.43
Peak level 91.2 %
Extraction speed 4.3 X
Track quality 100.0 %
Test CRC BF6EB10D
Copy CRC BF6EB10D
Cannot be verified as accurate (confidence 4) [D5FAAE03], AccurateRip returned [E573517A] (AR v2)
Copy OK
Track 15
Filename C:\My Documents\My FLAC\VA - The Sound Of Funk Volume One (1992) [FLAC] {Goldmine, Soul Supply}\15 - Chris Jones - I'm The Man.wav
Pre-gap length 0:00:01.64
Peak level 97.7 %
Extraction speed 3.8 X
Track quality 99.9 %
Test CRC 25CC2B36
Copy CRC 25CC2B36
Cannot be verified as accurate (confidence 4) [381D6F81], AccurateRip returned [B8E302D9] (AR v2)
Copy OK
Track 16
Filename C:\My Documents\My FLAC\VA - The Sound Of Funk Volume One (1992) [FLAC] {Goldmine, Soul Supply}\16 - Al Brown - The Whip Part 1.wav
Pre-gap length 0:00:01.58
Peak level 97.7 %
Extraction speed 4.0 X
Track quality 99.9 %
Test CRC F63F7518
Copy CRC F63F7518
Cannot be verified as accurate (confidence 4) [B32E9853], AccurateRip returned [58100F92] (AR v2)
Copy OK
Track 17
Filename C:\My Documents\My FLAC\VA - The Sound Of Funk Volume One (1992) [FLAC] {Goldmine, Soul Supply}\17 - Spanky Wilson - You.wav
Pre-gap length 0:00:01.29
Peak level 97.7 %
Extraction speed 0.4 X
Track quality 100.0 %
Test CRC 317899A1
Copy CRC 317899A1
Cannot be verified as accurate (confidence 4) [F87546DB], AccurateRip returned [556E88EE] (AR v2)
Copy OK
Track 18
Filename C:\My Documents\My FLAC\VA - The Sound Of Funk Volume One (1992) [FLAC] {Goldmine, Soul Supply}\18 - Camille Bob - Brother Brown.wav
Pre-gap length 0:00:01.40
Peak level 97.7 %
Extraction speed 5.0 X
Track quality 100.0 %
Test CRC 0162C7A0
Copy CRC 0162C7A0
Cannot be verified as accurate (confidence 4) [026064A2], AccurateRip returned [12B27C80] (AR v2)
Copy OK
Track 19
Filename C:\My Documents\My FLAC\VA - The Sound Of Funk Volume One (1992) [FLAC] {Goldmine, Soul Supply}\19 - Dave Cortez & The Moon People - Happy Soul.wav
Pre-gap length 0:00:01.38
Peak level 97.7 %
Extraction speed 5.1 X
Track quality 100.0 %
Test CRC 2E4ACAAA
Copy CRC 2E4ACAAA
Cannot be verified as accurate (confidence 4) [14753870], AccurateRip returned [AE8C54B0] (AR v2)
Copy OK
No tracks could be verified as accurate
You may have a different pressing from the one(s) in the database
No errors occurred
End of status report
---- CUETools DB Plugin V2.1.6
[CTDB TOCID: jbkA.mmQPvJzgH747bv7qY_xXtg-] found
Submit result: jbkA.mmQPvJzgH747bv7qY_xXtg- has been confirmed
Track | CTDB Status
1 | (1/2) Accurately ripped
2 | (1/2) Accurately ripped
3 | (1/2) Accurately ripped
4 | (1/2) Accurately ripped
5 | (1/2) Accurately ripped
6 | (1/2) Accurately ripped
7 | (1/2) Accurately ripped
8 | (1/2) Accurately ripped
9 | (1/2) Accurately ripped
10 | (1/2) Accurately ripped
11 | (1/2) Accurately ripped
12 | (1/2) Accurately ripped
13 | (1/2) Accurately ripped
14 | (1/2) Accurately ripped
15 | (1/2) Accurately ripped
16 | (1/2) Accurately ripped
17 | (1/2) Accurately ripped
18 | (1/2) Accurately ripped
19 | (1/2) Accurately ripped
==== Log checksum A658880A63611D011559A4E5C0E3FCD26F83986CE5CF0A213AF9B04DC89CA696 ====
 
Содержание индексной карты (.CUE)
REM GENRE Soul
REM DATE 1992
REM DISCID 100C4513
REM COMMENT "ExactAudioCopy v1.1"
CATALOG 0000000000000
PERFORMER "Various"
TITLE "The Sound Of Funk Volume One"
FILE "01 - Herb Johnson Settlement - Damph F'aint'.wav" WAVE
TRACK 01 AUDIO
TITLE "Damph F'aint'"
PERFORMER "Herb Johnson Settlement"
PREGAP 00:00:33
INDEX 01 00:00:00
TRACK 02 AUDIO
TITLE "The Sad Chicken"
PERFORMER "Leroy & The Drivers"
INDEX 00 03:30:65
FILE "02 - Leroy & The Drivers - The Sad Chicken.wav" WAVE
INDEX 01 00:00:00
TRACK 03 AUDIO
TITLE "How Long Shall I Wait"
PERFORMER "James Lewis Fields"
INDEX 00 02:50:40
FILE "03 - James Lewis Fields - How Long Shall I Wait.wav" WAVE
INDEX 01 00:00:00
TRACK 04 AUDIO
TITLE "Hector"
PERFORMER "The Village Callers"
INDEX 00 02:26:31
FILE "04 - The Village Callers - Hector.wav" WAVE
INDEX 01 00:00:00
TRACK 05 AUDIO
TITLE "Let The Groove Move You"
PERFORMER "Gus ''The Groove'' Lewis"
INDEX 00 02:34:54
FILE "05 - Gus ''The Groove'' Lewis - Let The Groove Move You.wav" WAVE
INDEX 01 00:00:00
TRACK 06 AUDIO
TITLE "Groovy World"
PERFORMER "Fabulous Caprices"
INDEX 00 02:48:73
FILE "06 - Fabulous Caprices - Groovy World.wav" WAVE
INDEX 01 00:00:00
TRACK 07 AUDIO
TITLE "Jan Jan"
PERFORMER "The Fabulous Counts"
INDEX 00 03:36:43
FILE "07 - The Fabulous Counts - Jan Jan.wav" WAVE
INDEX 01 00:00:00
TRACK 08 AUDIO
TITLE "Iron Leg"
PERFORMER "Mickey & The Soul Generation"
INDEX 00 02:21:08
FILE "08 - Mickey & The Soul Generation - Iron Leg.wav" WAVE
INDEX 01 00:00:00
TRACK 09 AUDIO
TITLE "You Got To Be A Man"
PERFORMER "Frank Williams"
INDEX 00 02:08:48
FILE "09 - Frank Williams - You Got To Be A Man.wav" WAVE
INDEX 01 00:00:00
TRACK 10 AUDIO
TITLE "Searchin' For Soul"
PERFORMER "Jake Wade & The Soul Searchers"
INDEX 00 02:42:19
FILE "10 - Jake Wade & The Soul Searchers - Searchin' For Soul.wav" WAVE
INDEX 01 00:00:00
TRACK 11 AUDIO
TITLE "The Push & Pull"
PERFORMER "Sons Of Slum"
INDEX 00 02:37:68
FILE "11 - Sons Of Slum - The Push & Pull.wav" WAVE
INDEX 01 00:00:00
TRACK 12 AUDIO
TITLE "Take This Woman Off The Corner"
PERFORMER "James Spencer"
INDEX 00 02:38:21
FILE "12 - James Spencer - Take This Woman Off The Corner.wav" WAVE
INDEX 01 00:00:00
TRACK 13 AUDIO
TITLE "Everything's Gonna Be Alright"
PERFORMER "Robert Moore"
INDEX 00 02:22:55
FILE "13 - Robert Moore - Everything's Gonna Be Alright.wav" WAVE
INDEX 01 00:00:00
TRACK 14 AUDIO
TITLE "The Tramp Pt.1"
PERFORMER "The Showmen Inc."
INDEX 00 02:33:35
FILE "14 - The Showmen Inc. - The Tramp Pt.1.wav" WAVE
INDEX 01 00:00:00
TRACK 15 AUDIO
TITLE "I'm The Man"
PERFORMER "Chris Jones"
INDEX 00 02:13:11
FILE "15 - Chris Jones - I'm The Man.wav" WAVE
INDEX 01 00:00:00
TRACK 16 AUDIO
TITLE "The Whip Part 1"
PERFORMER "Al Brown"
INDEX 00 02:50:17
FILE "16 - Al Brown - The Whip Part 1.wav" WAVE
INDEX 01 00:00:00
TRACK 17 AUDIO
TITLE "You"
PERFORMER "Spanky Wilson"
INDEX 00 03:19:08
FILE "17 - Spanky Wilson - You.wav" WAVE
INDEX 01 00:00:00
TRACK 18 AUDIO
TITLE "Brother Brown"
PERFORMER "Camille Bob"
INDEX 00 02:12:73
FILE "18 - Camille Bob - Brother Brown.wav" WAVE
INDEX 01 00:00:00
TRACK 19 AUDIO
TITLE "Happy Soul"
PERFORMER "Dave Cortez & The Moon People"
INDEX 00 03:04:62
FILE "19 - Dave Cortez & The Moon People - Happy Soul.wav" WAVE
INDEX 01 00:00:00
Приватный:
Нет (DHT включён)
Размер:
316.76 Мб (332,145,683 байт) » файлов: 27
Участники:
0 раздают, 0 качают (0 участников всего)
Внешние участники:
7 раздают, 2 качают (9 участников всего) [ Обновить ]
Есть вопросы - пишите личное сообщение пользователю M0p94ok.
13:27
61
Нет комментариев. Ваш будет первым!