Поиск

(Funk, Soul) [CD] The Temptations - The Original Lead Singers Of The Temptations Greatest Hits - 1993, FLAC (image+.cue), lossless

Треклист:
The Temptations / The Original Lead Singers Of The Temptations Greatest Hits
Жанр: Funk, Soul
Носитель: CD
Страна-производитель диска (релиза): EEC
Год издания: 1993
Издатель (лейбл): Elap Music Ltd./Success
Номер по каталогу: 16179CD
Страна исполнителя (группы): USA
Аудиокодек: FLAC (*.flac)
Тип рипа: image+.cue
Битрейт аудио: lossless
Продолжительность: 62'35''
Источник (релизер): RedHotBlues
Наличие сканов в содержимом раздачи: да
Треклист:
CD: The Temptations - Greatest Hits
01. I Can't Get Next to You [0:02:59.50]
02. Papa Was a Rolling Stone [0:07:12.60]
03. Ain't Too Proud to Beg [0:02:52.67]
04. Superstar (Remember How You Got Where You Are) [0:03:00.05]
05. Just My Imagination (Runing Away With Me) [0:03:53.43]
06. Beauty Is Only Skin Deep [0:02:49.35]
07. Masterpiece [0:04:28.27]
08. Cloud Nine [0:03:48.00]
09. Ball of Confusion (That's What the World Is Today) [0:04:08.58]
10. Run Away Child Running Wild [0:05:02.72]
11. My Girl [0:03:00.60]
12. Keep on Truckin' [0:03:37.63]
13. The Way You Do the Things You Do [0:02:59.00]
14. I Wish It Would Rain [0:03:13.72]
15. Get Ready [0:02:56.43]
16. I Know I'm Losing You [0:02:48.67]
17. Psychedelic Shack [0:03:39.60]
 
Лог создания рипа
Exact Audio Copy V1.1 from 23. June 2015
Отчёт EAC об извлечении, выполненном 1. октября 2015, 13:57
The Temptations / Greatest Hits
Дисковод: _NEC DVD_RW ND-4570A Adapter: 1 ID: 0
Режим чтения : Достоверность
Использование точного потока : Да
Отключение кэша аудио : Да
Использование указателей C2 : Нет
Коррекция смещения при чтении : 48
Способность читать области Lead-in и Lead-out : Нет
Заполнение пропущенных сэмплов тишиной : Да
Удаление блоков с тишиной в начале и конце : Нет
При вычислениях CRC использовались нулевые сэмплы : Да
Интерфейс : Встроенный Win32-интерфейс для Win NT/2000
Выходной формат : Пользовательский кодировщик
Выбранный битрейт : 768 kBit/s
Качество : Высокий
Добавление ID3-тега : Нет
Утилита сжатия : C:\Program Files\Exact Audio Copy\FLAC\FLAC.EXE
Дополнительные параметры : -6 -V -T "ARTIST=%artist%" -T "TITLE=%title%" -T "ALBUM=%albumtitle%" -T "DATE=%year%" -T "TRACKNUMBER=%tracknr%" -T "GENRE=%genre%" -T "COMMENT=%comment%" -T "BAND=%albuminterpret%" -T "ALBUMARTIST=%albuminterpret%" -T "COMPOSER=%composer%" %haslyrics%--tag-from-file=LYRICS="%lyricsfile%"%haslyrics% -T "DISCNUMBER=%cdnumber%" -T "TOTALDISCS=%totalcds%" -T "TOTALTRACKS=%numtracks%" %hascover%--picture="%coverfile%"%hascover% %source% -o %dest%
TOC извлечённого CD
Трек | Старт | Длительность | Начальный сектор | Конечный сектор
---------------------------------------------------------------------
1 | 0:00.33 | 2:59.50 | 33 | 13507
2 | 3:00.08 | 7:12.60 | 13508 | 45967
3 | 10:12.68 | 2:52.67 | 45968 | 58934
4 | 13:05.60 | 3:00.05 | 58935 | 72439
5 | 16:05.65 | 3:53.43 | 72440 | 89957
6 | 19:59.33 | 2:49.35 | 89958 | 102667
7 | 22:48.68 | 4:28.27 | 102668 | 122794
8 | 27:17.20 | 3:48.00 | 122795 | 139894
9 | 31:05.20 | 4:08.58 | 139895 | 158552
10 | 35:14.03 | 5:02.72 | 158553 | 181274
11 | 40:17.00 | 3:00.60 | 181275 | 194834
12 | 43:17.60 | 3:37.63 | 194835 | 211172
13 | 46:55.48 | 2:59.00 | 211173 | 224597
14 | 49:54.48 | 3:13.72 | 224598 | 239144
15 | 53:08.45 | 2:56.43 | 239145 | 252387
16 | 56:05.13 | 2:48.67 | 252388 | 265054
17 | 58:54.05 | 3:39.60 | 265055 | 281539
Характеристики диапазона извлечения и сообщения об ошибках
Выбранный диапазон
Имя файла D:\UPLOADS-3\The Temptations - Greatest Hits - 1993 - 62'35''\The Temptations - Greatest Hits.wav
Пиковый уровень 100.0 %
Скорость извлечения 7.4 X
Качество диапазона 100.0 %
CRC теста 95FF7A79
CRC копии 95FF7A79
Копирование... OK
Ошибок не произошло
AccurateRip: сводка
Трек 1 : извлечено точно (доверие 6) [F6D9937F] (AR v2)
Трек 2 : извлечено точно (доверие 7) [690EF415] (AR v2)
Трек 3 : извлечено точно (доверие 6) [97F5A8B4] (AR v2)
Трек 4 : извлечено точно (доверие 6) [1F82CDAB] (AR v2)
Трек 5 : извлечено точно (доверие 7) [6D35570B] (AR v2)
Трек 6 : извлечено точно (доверие 6) [61A445CD] (AR v2)
Трек 7 : извлечено точно (доверие 6) [809E43D3] (AR v2)
Трек 8 : извлечено точно (доверие 6) [C84439C1] (AR v2)
Трек 9 : извлечено точно (доверие 6) [AA669C71] (AR v2)
Трек 10 : извлечено точно (доверие 6) [38AE297A] (AR v2)
Трек 11 : извлечено точно (доверие 7) [C468B756] (AR v2)
Трек 12 : извлечено точно (доверие 6) [B58E0447] (AR v2)
Трек 13 : извлечено точно (доверие 6) [8C7BD75B] (AR v2)
Трек 14 : извлечено точно (доверие 7) [18A4FA46] (AR v2)
Трек 15 : извлечено точно (доверие 6) [A797FA67] (AR v2)
Трек 16 : извлечено точно (доверие 6) [5639FB52] (AR v2)
Трек 17 : извлечено точно (доверие 5) [B44DCC52] (AR v2)
Все треки извлечены точно
Конец отчёта
---- CUETools DB Plugin V2.1.6
[CTDB TOCID: W7p0FCt3HGJbKWtezMcblNFcNU8-] found
Submit result: W7p0FCt3HGJbKWtezMcblNFcNU8- has been confirmed
Track | CTDB Status
1 | (3/3) Accurately ripped
2 | (3/3) Accurately ripped
3 | (3/3) Accurately ripped
4 | (3/3) Accurately ripped
5 | (3/3) Accurately ripped
6 | (3/3) Accurately ripped
7 | (3/3) Accurately ripped
8 | (3/3) Accurately ripped
9 | (3/3) Accurately ripped
10 | (3/3) Accurately ripped
11 | (3/3) Accurately ripped
12 | (3/3) Accurately ripped
13 | (3/3) Accurately ripped
14 | (3/3) Accurately ripped
15 | (3/3) Accurately ripped
16 | (3/3) Accurately ripped
17 | (3/3) Accurately ripped
==== Контрольная сумма отчёта 39D619F47F06E702B1F14BA52E9D91CA7A9BADBDF73DF4B4E3FD96C211DEC87C ====
 
Лог проверки качества
-----------------------
DON'T MODIFY THIS FILE
-----------------------
PERFORMER: auCDtect Task Manager, ver. 1.5.1RC4 build 1.5.1.5
Copyright (c) 2008-2010 y-soft. All rights reserved
http://y-soft.org
ANALYZER: auCDtect: CD records authenticity detector, version 0.8.2
Copyright (c) 2004 Oleg Berngardt. All rights reserved.
Copyright (c) 2004 Alexander Djourik. All rights reserved.
FILE: The Temptations - Greatest Hits.flac
Size: 386191037 Hash: 215805A5293FB867D913A506A29613E6 Accuracy: -m0
Conclusion: CDDA 100%
Signature: 6ECF7E2C25F246E3C5AE7068C8A44FB23241D5A5
 
Скриншот спектра частот
Приватный:
Нет (DHT включён)
Размер:
418.69 Мб (439,027,718 байт) » файлов: 12
Участники:
0 раздают, 0 качают (0 участников всего)
Внешние участники:
5 раздают, 2 качают (7 участников всего) [ Обновить ]
Есть вопросы - пишите личное сообщение пользователю M0p94ok.
08:09
67
Нет комментариев. Ваш будет первым!