Поиск

(Funk/ Soul) [CD] Brick - 3 alb./3 cd ( Good High - 1976 / Waiting On You - 1979 / Stoneheart - 1979) - (2010 - 2018), FLAC (tracks+.cue), lossless

(Funk/ Soul) [CD] Brick - 3 alb./3 cd ( Good High - 1976 / Waiting On You - 1979 / Stoneheart - 1979) - (2010 - 2018), FLAC (tracks+.cue), lossless
Треклист:
Brick - Collection (3CDAlbums)

Жанр: Funk / Soul, Disco
Носитель: CD
Страна-производитель диска (релиза): japan / usa
Год издания: 2018/ 2011/ 2010
Издатель (лейбл): Sony Music Japan/ Wounded Bird Records/ Funkytowngrooves
Номер по каталогу: SICP-5725/ WOU 5969/ FTG-217
Страна исполнителя (группы): usa
Аудиокодек: FLAC (*.flac)
Тип рипа: tracks+.cue
Битрейт аудио: lossless
Продолжительность: 3~02h:18min:43sec
Источник (релизер): own rip
Наличие сканов в содержимом раздачи: да
 
1976 - Good High - 43:45

Страна-производитель диска: Japan
Год выпуска диска: 2018
Дата выхода оригинального издания: 1976
Тип издания: CD, Album, Limited Edition, Reissue
Издатель (лейбл): Sony Music Japan
Номер по каталогу: SICP-5725
Треклист

01 Here We Come (02:55)
02 Music Matic (03:03)
03 Dazz (05:37)
04 Can't Wait (03:25)
05 Southern Sunset (04:05)
06 Good High (03:13)
07 Brick City (06:21)
08 Sister Twister (03:34)
09 That's What It's All About (04:20)
10 Dazz (Dazz Disco Mix) (03:25)
11 That's What It's All About (Single Version) (03:41)
 
Лог создания рипа
Exact Audio Copy V1.0 beta 2 from 29. April 2011
Отчёт EAC об извлечении, выполненном 24. июля 2018, 12:29
Brick / Good High
Дисковод: ASUS DRW-24D5MT Adapter: 0 ID: 1
Режим чтения : Достоверность
Использование точного потока : Да
Отключение кэша аудио : Да
Использование указателей C2 : Нет
Коррекция смещения при чтении : 6
Способность читать области Lead-in и Lead-out : Нет
Заполнение пропущенных сэмплов тишиной : Да
Удаление блоков с тишиной в начале и конце : Нет
При вычислениях CRC использовались нулевые сэмплы : Да
Интерфейс : Встроенный Win32-интерфейс для Win NT/2000
Обработка зазоров : Добавлено к предыдущему треку
Выходной формат : Пользовательский кодировщик
Выбранный битрейт : 128 kBit/s
Качество : Высокий
Добавление ID3-тега : Нет
Утилита сжатия : C:\Program Files\Exact Audio Copy\FLAC\FLAC.EXE
Дополнительные параметры : -8 -V -T "ARTIST=%artist%" -T "TITLE=%title%" -T "ALBUM=%albumtitle%" -T "DATE=%year%" -T "TRACKNUMBER=%tracknr%" -T "GENRE=%genre%" -T "COMMENT=%comment%" -T "BAND=%albuminterpret%" -T "COMPOSER=%composer%" %haslyrics%--tag-from-
TOC извлечённого CD
Трек | Старт | Длительность | Начальный сектор | Конечный сектор
---------------------------------------------------------------------
1 | 0:00.00 | 2:55.27 | 0 | 13151
2 | 2:55.27 | 3:03.30 | 13152 | 26906
3 | 5:58.57 | 5:37.23 | 26907 | 52204
4 | 11:36.05 | 3:25.57 | 52205 | 67636
5 | 15:01.62 | 4:05.73 | 67637 | 86084
6 | 19:07.60 | 3:13.52 | 86085 | 100611
7 | 22:21.37 | 6:21.25 | 100612 | 129211
8 | 28:42.62 | 3:34.50 | 129212 | 145311
9 | 32:17.37 | 4:20.13 | 145312 | 164824
10 | 36:37.50 | 3:25.67 | 164825 | 180266
11 | 40:03.42 | 3:41.55 | 180267 | 196896
Трек 1
Имя файла D:\FLAC\01 Here We Come.wav
Длина предзазора 0:00:02.00
Пиковый уровень 100.0 %
Скорость извлечения 3.9 X
Качество трека 100.0 %
CRC теста 2BF9063E
CRC копии 2BF9063E
Точность не определена (достоверность 7) [0E9640B9], AccurateRip вернул [819E221C] (AR v2)
Копирование... OK
Трек 2
Имя файла D:\FLAC\02 Music Matic.wav
Длина предзазора 0:00:01.55
Пиковый уровень 99.6 %
Скорость извлечения 4.3 X
Качество трека 100.0 %
CRC теста C3AA0770
CRC копии C3AA0770
Точность не определена (достоверность 7) [F63EAEB1], AccurateRip вернул [443ADBD3] (AR v2)
Копирование... OK
Трек 3
Имя файла D:\FLAC\03 Dazz.wav
Длина предзазора 0:00:01.55
Пиковый уровень 98.8 %
Скорость извлечения 4.7 X
Качество трека 99.9 %
CRC теста B4E58CCD
CRC копии B4E58CCD
Точность не определена (достоверность 8) [E3BB44D1], AccurateRip вернул [C46943D6] (AR v2)
Копирование... OK
Трек 4
Имя файла D:\FLAC\04 Can't Wait.wav
Длина предзазора 0:00:00.60
Пиковый уровень 93.8 %
Скорость извлечения 5.3 X
Качество трека 100.0 %
CRC теста F0D8C19A
CRC копии F0D8C19A
Точность не определена (достоверность 7) [B12840A3], AccurateRip вернул [02D8F0B1] (AR v2)
Копирование... OK
Трек 5
Имя файла D:\FLAC\05 Southern Sunset.wav
Длина предзазора 0:00:00.55
Пиковый уровень 97.7 %
Скорость извлечения 5.7 X
Качество трека 100.0 %
CRC теста C454C5C1
CRC копии C454C5C1
Точность не определена (достоверность 6) [3CE421B2], AccurateRip вернул [08376734] (AR v2)
Копирование... OK
Трек 6
Имя файла D:\FLAC\06 Good High.wav
Длина предзазора 0:00:01.55
Пиковый уровень 100.0 %
Скорость извлечения 5.7 X
Качество трека 100.0 %
CRC теста D3F09230
CRC копии D3F09230
Точность не определена (достоверность 6) [1B135BC8], AccurateRip вернул [69D90C7A] (AR v2)
Копирование... OK
Трек 7
Имя файла D:\FLAC\07 Brick City.wav
Длина предзазора 0:00:00.55
Пиковый уровень 100.0 %
Скорость извлечения 6.6 X
Качество трека 100.0 %
CRC теста 8C717BBF
CRC копии 8C717BBF
Точность не определена (достоверность 7) [8FF2200C], AccurateRip вернул [006DD073] (AR v2)
Копирование... OK
Трек 8
Имя файла D:\FLAC\08 Sister Twister.wav
Длина предзазора 0:00:00.55
Пиковый уровень 100.0 %
Скорость извлечения 6.5 X
Качество трека 100.0 %
CRC теста AA126BCE
CRC копии AA126BCE
Точность не определена (достоверность 6) [3CC35D2B], AccurateRip вернул [EFA0208A] (AR v2)
Копирование... OK
Трек 9
Имя файла D:\FLAC\09 That's What It's All About.wav
Длина предзазора 0:00:01.17
Пиковый уровень 99.6 %
Скорость извлечения 7.0 X
Качество трека 100.0 %
CRC теста 24B31AE3
CRC копии 24B31AE3
Точность не определена (достоверность 7) [67B7E8D0], AccurateRip вернул [044950B3] (AR v2)
Копирование... OK
Трек 10
Имя файла D:\FLAC\10 Dazz (Dazz Disco Mix).wav
Длина предзазора 0:00:00.55
Пиковый уровень 100.0 %
Скорость извлечения 7.0 X
Качество трека 100.0 %
CRC теста 28BEE814
CRC копии 28BEE814
Точность не определена (достоверность 7) [715C2423], AccurateRip вернул [1BEDC081] (AR v2)
Копирование... OK
Трек 11
Имя файла D:\FLAC\11 That's What It's All About (Single Version).wav
Длина предзазора 0:00:01.16
Пиковый уровень 99.6 %
Скорость извлечения 7.2 X
Качество трека 100.0 %
CRC теста 7AF7CCE2
CRC копии 7AF7CCE2
Точность не определена (достоверность 7) [2B541971], AccurateRip вернул [73F9772E] (AR v2)
Копирование... OK
Ни один трек не прошёл проверки на точность
В вашей базе может быть иной вариант штамповки диска
Ошибок не произошло
Конец отчёта
---- CUETools DB Plugin V2.1.4
[CTDB TOCID: 9uT2OxKkgsWQR90JmE3z0g9p8Ew-] found
Submit result: 9uT2OxKkgsWQR90JmE3z0g9p8Ew- has been confirmed
Track | CTDB Status
1 | (10/10) Accurately ripped
2 | (10/10) Accurately ripped
3 | (10/10) Accurately ripped
4 | (10/10) Accurately ripped
5 | (10/10) Accurately ripped
6 | (10/10) Accurately ripped
7 | (10/10) Accurately ripped
8 | (10/10) Accurately ripped
9 | (10/10) Accurately ripped
10 | (10/10) Accurately ripped
11 | ( 9/10) Accurately ripped
==== Контрольная сумма отчёта 1BF48F068A37749E5161A1D967819CBB2950751E8D34968E758BD7CDB0CB6E20 ====
 
Содержание индексной карты (.CUE)
REM GENRE Funk
REM DATE 1976
REM DISCID 9B0A410B
REM COMMENT "ExactAudioCopy v1.0b2"
PERFORMER "Brick"
TITLE "Good High"
FILE "01 Here We Come.wav" WAVE
TRACK 01 AUDIO
TITLE "Here We Come"
PERFORMER "Brick"
ISRC USSM11004473
INDEX 01 00:00:00
TRACK 02 AUDIO
TITLE "Music Matic"
PERFORMER "Brick"
ISRC USSM19916974
INDEX 00 02:53:47
FILE "02 Music Matic.wav" WAVE
INDEX 01 00:00:00
TRACK 03 AUDIO
TITLE "Dazz"
PERFORMER "Brick"
ISRC USSM17600017
INDEX 00 03:01:50
FILE "03 Dazz.wav" WAVE
INDEX 01 00:00:00
TRACK 04 AUDIO
TITLE "Can't Wait"
PERFORMER "Brick"
ISRC USSM11004475
INDEX 00 05:36:38
FILE "04 Can't Wait.wav" WAVE
INDEX 01 00:00:00
TRACK 05 AUDIO
TITLE "Southern Sunset"
PERFORMER "Brick"
ISRC USSM11004476
INDEX 00 03:25:02
FILE "05 Southern Sunset.wav" WAVE
INDEX 01 00:00:00
TRACK 06 AUDIO
TITLE "Good High"
PERFORMER "Brick"
ISRC USSM19916975
INDEX 00 04:04:18
FILE "06 Good High.wav" WAVE
INDEX 01 00:00:00
TRACK 07 AUDIO
TITLE "Brick City"
PERFORMER "Brick"
ISRC USSM11004477
INDEX 00 03:12:72
FILE "07 Brick City.wav" WAVE
INDEX 01 00:00:00
TRACK 08 AUDIO
TITLE "Sister Twister"
PERFORMER "Brick"
ISRC USSM11004478
INDEX 00 06:20:45
FILE "08 Sister Twister.wav" WAVE
INDEX 01 00:00:00
TRACK 09 AUDIO
TITLE "That's What It's All About"
PERFORMER "Brick"
ISRC USSM11004479
INDEX 00 03:33:33
FILE "09 That's What It's All About.wav" WAVE
INDEX 01 00:00:00
TRACK 10 AUDIO
TITLE "Dazz (Dazz Disco Mix)"
PERFORMER "Brick"
ISRC USSM11004480
INDEX 00 04:19:33
FILE "10 Dazz (Dazz Disco Mix).wav" WAVE
INDEX 01 00:00:00
TRACK 11 AUDIO
TITLE "That's What It's All About (Single Version)"
PERFORMER "Brick"
ISRC USSM11004481
INDEX 00 03:24:51
FILE "11 That's What It's All About (Single Version).wav" WAVE
INDEX 01 00:00:00
 
1979 - Stoneheart - 43:26

Страна-производитель диска: usa
Год выпуска диска: 2011
Дата выхода оригинального издания: 1979
Тип издания: CD, Album, Reissue
Издатель (лейбл): Wounded Bird Records ‎
Номер по каталогу: wou5969
Треклист

01 Brick Intro (01:49)
02 Stoneheart (06:01)
03 By The Moonlight (04:23)
04 Magic Woman (05:28)
05 Life Is What You Make It (02:59)
06 Raise Your Hands (04:57)
07 We'll Love (03:45)
08 Dancin' Man (04:30)
09 To Me (05:32)
10 Raise Your Hands [Single Version] (03:59)
 
Лог создания рипа
Exact Audio Copy V1.0 beta 2 from 29. April 2011
Отчёт EAC об извлечении, выполненном 25. августа 2018, 13:43
Brick / Stoneheart
Дисковод: ASUS DRW-24D5MT Adapter: 0 ID: 1
Режим чтения : Достоверность
Использование точного потока : Да
Отключение кэша аудио : Да
Использование указателей C2 : Нет
Коррекция смещения при чтении : 6
Способность читать области Lead-in и Lead-out : Нет
Заполнение пропущенных сэмплов тишиной : Да
Удаление блоков с тишиной в начале и конце : Нет
При вычислениях CRC использовались нулевые сэмплы : Да
Интерфейс : Встроенный Win32-интерфейс для Win NT/2000
Обработка зазоров : Добавлено к предыдущему треку
Выходной формат : Пользовательский кодировщик
Выбранный битрейт : 128 kBit/s
Качество : Высокий
Добавление ID3-тега : Нет
Утилита сжатия : C:\Program Files\Exact Audio Copy\FLAC\FLAC.EXE
Дополнительные параметры : -8 -V -T "ARTIST=%artist%" -T "TITLE=%title%" -T "ALBUM=%albumtitle%" -T "DATE=%year%" -T "TRACKNUMBER=%tracknr%" -T "GENRE=%genre%" -T "COMMENT=%comment%" -T "BAND=%albuminterpret%" -T "COMPOSER=%composer%" %haslyrics%--tag-from-
TOC извлечённого CD
Трек | Старт | Длительность | Начальный сектор | Конечный сектор
---------------------------------------------------------------------
1 | 0:00.00 | 1:49.40 | 0 | 8214
2 | 1:49.40 | 6:01.02 | 8215 | 35291
3 | 7:50.42 | 4:23.50 | 35292 | 55066
4 | 12:14.17 | 5:28.23 | 55067 | 79689
5 | 17:42.40 | 2:59.14 | 79690 | 93128
6 | 20:41.54 | 4:57.06 | 93129 | 115409
7 | 25:38.60 | 3:45.12 | 115410 | 132296
8 | 29:23.72 | 4:30.25 | 132297 | 152571
9 | 33:54.22 | 5:32.73 | 152572 | 177544
10 | 39:27.20 | 3:59.20 | 177545 | 195489
Трек 1
Имя файла D:\FLAC\01 Brick Intro.wav
Длина предзазора 0:00:02.00
Пиковый уровень 97.7 %
Скорость извлечения 3.2 X
Качество трека 99.9 %
CRC теста 9AAFA8D7
CRC копии 9AAFA8D7
Точное извлечение (достоверность 5) [56A58D23] (AR v2)
Копирование... OK
Трек 2
Имя файла D:\FLAC\02 Stoneheart.wav
Пиковый уровень 97.6 %
Скорость извлечения 5.2 X
Качество трека 100.0 %
CRC теста F2134967
CRC копии F2134967
Точное извлечение (достоверность 5) [EABEF530] (AR v2)
Копирование... OK
Трек 3
Имя файла D:\FLAC\03 By The Moonlight.wav
Длина предзазора 0:00:01.32
Пиковый уровень 97.7 %
Скорость извлечения 5.6 X
Качество трека 100.0 %
CRC теста 8888802D
CRC копии 8888802D
Точное извлечение (достоверность 5) [1BC97BF4] (AR v2)
Копирование... OK
Трек 4
Имя файла D:\FLAC\04 Magic Woman.wav
Длина предзазора 0:00:01.28
Пиковый уровень 100.0 %
Скорость извлечения 5.6 X
Качество трека 99.9 %
CRC теста A96A9ABA
CRC копии A96A9ABA
Точное извлечение (достоверность 5) [D1F6F8AA] (AR v2)
Копирование... OK
Трек 5
Имя файла D:\FLAC\05 Life Is What You Make It.wav
Длина предзазора 0:00:00.45
Пиковый уровень 99.7 %
Скорость извлечения 6.0 X
Качество трека 100.0 %
CRC теста 68337084
CRC копии 68337084
Точное извлечение (достоверность 5) [DD95A476] (AR v2)
Копирование... OK
Трек 6
Имя файла D:\FLAC\06 Raise Your Hands.wav
Длина предзазора 0:00:00.17
Пиковый уровень 100.0 %
Скорость извлечения 6.8 X
Качество трека 100.0 %
CRC теста 62400CFB
CRC копии 62400CFB
Точное извлечение (достоверность 5) [4966350B] (AR v2)
Копирование... OK
Трек 7
Имя файла D:\FLAC\07 We'll Love.wav
Длина предзазора 0:00:00.18
Пиковый уровень 99.7 %
Скорость извлечения 7.0 X
Качество трека 100.0 %
CRC теста 16C8C9F6
CRC копии 16C8C9F6
Точное извлечение (достоверность 5) [0A6FF9AA] (AR v2)
Копирование... OK
Трек 8
Имя файла D:\FLAC\08 Dancin' Man.wav
Длина предзазора 0:00:01.55
Пиковый уровень 100.0 %
Скорость извлечения 7.4 X
Качество трека 100.0 %
CRC теста 48EEA09A
CRC копии 48EEA09A
Точное извлечение (достоверность 5) [58B3B014] (AR v2)
Копирование... OK
Трек 9
Имя файла D:\FLAC\09 To Me.wav
Длина предзазора 0:00:00.55
Пиковый уровень 99.8 %
Скорость извлечения 7.1 X
Качество трека 99.9 %
CRC теста 77160EAA
CRC копии 77160EAA
Точное извлечение (достоверность 5) [7ADC9E30] (AR v2)
Копирование... OK
Трек 10
Имя файла D:\FLAC\10 Raise Your Hands [Single Version].wav
Длина предзазора 0:00:00.43
Пиковый уровень 100.0 %
Скорость извлечения 7.8 X
Качество трека 100.0 %
CRC теста A5C85B16
CRC копии A5C85B16
Точное извлечение (достоверность 5) [B7757E41] (AR v2)
Копирование... OK
Все треки извлечены точно
Ошибок не произошло
Конец отчёта
#ИМЯ?
[CTDB TOCID: 8pwCqXzHb6pRZ2xIyb2k7Vka8l8-] found
Submit result: 8pwCqXzHb6pRZ2xIyb2k7Vka8l8- has been confirmed
Track | CTDB Status
1 | (3/3) Accurately ripped
2 | (3/3) Accurately ripped
3 | (3/3) Accurately ripped
4 | (3/3) Accurately ripped
5 | (3/3) Accurately ripped
6 | (3/3) Accurately ripped
7 | (3/3) Accurately ripped
8 | (3/3) Accurately ripped
9 | (3/3) Accurately ripped
10 | (3/3) Accurately ripped
==== Контрольная сумма отчёта B04C5221DEBE36937243357CF9CC88453A22E423E17D24C7B0A8AA63FDA962CE ====
 
Содержание индексной карты (.CUE)
REM GENRE Funk
REM DATE 1979
REM DISCID 730A2E0A
REM COMMENT "ExactAudioCopy v1.0b2"
PERFORMER "Brick"
TITLE "Stoneheart"
FILE "01 Brick Intro.wav" WAVE
TRACK 01 AUDIO
TITLE "Brick Intro"
PERFORMER "Brick"
ISRC USSM11004458
INDEX 01 00:00:00
FILE "02 Stoneheart.wav" WAVE
TRACK 02 AUDIO
TITLE "Stoneheart"
PERFORMER "Brick"
ISRC USSM10009530
INDEX 01 00:00:00
TRACK 03 AUDIO
TITLE "By The Moonlight"
PERFORMER "Brick"
ISRC USSM11004459
INDEX 00 05:59:45
FILE "03 By The Moonlight.wav" WAVE
INDEX 01 00:00:00
TRACK 04 AUDIO
TITLE "Magic Woman"
PERFORMER "Brick"
ISRC USSM11004465
INDEX 00 04:22:22
FILE "04 Magic Woman.wav" WAVE
INDEX 01 00:00:00
TRACK 05 AUDIO
TITLE "Life Is What You Make It"
PERFORMER "Brick"
ISRC USSM11004460
INDEX 00 05:27:53
FILE "05 Life Is What You Make It.wav" WAVE
INDEX 01 00:00:00
TRACK 06 AUDIO
TITLE "Raise Your Hands"
PERFORMER "Brick"
ISRC USSM10009533
INDEX 00 02:58:72
FILE "06 Raise Your Hands.wav" WAVE
INDEX 01 00:00:00
TRACK 07 AUDIO
TITLE "We'll Love"
PERFORMER "Brick"
ISRC USSM11004461
INDEX 00 04:56:63
FILE "07 We'll Love.wav" WAVE
INDEX 01 00:00:00
TRACK 08 AUDIO
TITLE "Dancin' Man"
PERFORMER "Brick"
ISRC USSM11004462
INDEX 00 03:43:32
FILE "08 Dancin' Man.wav" WAVE
INDEX 01 00:00:00
TRACK 09 AUDIO
TITLE "To Me"
PERFORMER "Brick"
ISRC USSM11004463
INDEX 00 04:29:45
FILE "09 To Me.wav" WAVE
INDEX 01 00:00:00
TRACK 10 AUDIO
TITLE "Raise Your Hands [Single Version]"
PERFORMER "Brick"
ISRC USSM11004464
INDEX 00 05:32:30
FILE "10 Raise Your Hands [Single Version].wav" WAVE
INDEX 01 00:00:00
 
1979 - Waiting On You - 51:32

Страна-производитель диска: usa
Год выпуска диска: 2010
Дата выхода оригинального издания: 1979
Тип издания:CD, Album, Remastered, Limited Edition
Издатель (лейбл): Funkytowngrooves
Номер по каталогу: FTG-217
Треклист

01 Push, Push (03:47)
02 Get Started (04:40)
03 All The Way (04:17)
04 Don't Ever Lose Your Love (02:52)
05 Waiting For You (03:57)
06 Free (03:13)
07 Sweet Lips (04:21)
08 Let Me Make You Happy (04:22)
09 Get Fired Up (04:37)
10 Spread Love (03:58)
11 Dazz (Long Version) (05:41)
12 Dusic (Long Version) (05:43)
 
Лог создания рипа
Exact Audio Copy V1.0 beta 2 from 29. April 2011
Отчёт EAC об извлечении, выполненном 19. августа 2018, 21:39
Brick / Waiting On You (Expanded Edition)
Дисковод: ASUS DRW-24D5MT Adapter: 0 ID: 1
Режим чтения : Достоверность
Использование точного потока : Да
Отключение кэша аудио : Да
Использование указателей C2 : Нет
Коррекция смещения при чтении : 6
Способность читать области Lead-in и Lead-out : Нет
Заполнение пропущенных сэмплов тишиной : Да
Удаление блоков с тишиной в начале и конце : Нет
При вычислениях CRC использовались нулевые сэмплы : Да
Интерфейс : Встроенный Win32-интерфейс для Win NT/2000
Обработка зазоров : Добавлено к предыдущему треку
Выходной формат : Пользовательский кодировщик
Выбранный битрейт : 128 kBit/s
Качество : Высокий
Добавление ID3-тега : Нет
Утилита сжатия : C:\Program Files\Exact Audio Copy\FLAC\FLAC.EXE
Дополнительные параметры : -8 -V -T "ARTIST=%artist%" -T "TITLE=%title%" -T "ALBUM=%albumtitle%" -T "DATE=%year%" -T "TRACKNUMBER=%tracknr%" -T "GENRE=%genre%" -T "COMMENT=%comment%" -T "BAND=%albuminterpret%" -T "COMPOSER=%composer%" %haslyrics%--tag-from-
TOC извлечённого CD
Трек | Старт | Длительность | Начальный сектор | Конечный сектор
---------------------------------------------------------------------
1 | 0:00.00 | 3:47.39 | 0 | 17063
2 | 3:47.39 | 4:40.14 | 17064 | 38077
3 | 8:27.53 | 4:17.08 | 38078 | 57360
4 | 12:44.61 | 2:52.20 | 57361 | 70280
5 | 15:37.06 | 3:57.60 | 70281 | 88115
6 | 19:34.66 | 3:13.67 | 88116 | 102657
7 | 22:48.58 | 4:21.13 | 102658 | 122245
8 | 27:09.71 | 4:22.24 | 122246 | 141919
9 | 31:32.20 | 4:37.40 | 141920 | 162734
10 | 36:09.60 | 3:58.15 | 162735 | 180599
11 | 40:08.00 | 5:41.00 | 180600 | 206174
12 | 45:49.00 | 5:43.37 | 206175 | 231936
Трек 1
Имя файла D:\FLAC\01 Push, Push.wav
Длина предзазора 0:00:02.00
Пиковый уровень 100.0 %
Скорость извлечения 4.3 X
Качество трека 100.0 %
CRC теста A763C6F0
CRC копии A763C6F0
Точное извлечение (достоверность 1) [15BB2BCB] (AR v2)
Копирование... OK
Трек 2
Имя файла D:\FLAC\02 Get Started.wav
Длина предзазора 0:00:02.00
Пиковый уровень 100.0 %
Скорость извлечения 4.5 X
Качество трека 99.9 %
CRC теста 98ACCF10
CRC копии 98ACCF10
Точное извлечение (достоверность 1) [1A6FE61F] (AR v2)
Копирование... OK
Трек 3
Имя файла D:\FLAC\03 All The Way.wav
Длина предзазора 0:00:02.00
Пиковый уровень 100.0 %
Скорость извлечения 5.4 X
Качество трека 100.0 %
CRC теста B227B79F
CRC копии B227B79F
Точное извлечение (достоверность 1) [3F99E1E1] (AR v2)
Копирование... OK
Трек 4
Имя файла D:\FLAC\04 Don't Ever Lose Your Love.wav
Длина предзазора 0:00:02.00
Пиковый уровень 99.6 %
Скорость извлечения 5.4 X
Качество трека 100.0 %
CRC теста 2BD598DF
CRC копии 2BD598DF
Точное извлечение (достоверность 1) [1EE6D419] (AR v2)
Копирование... OK
Трек 5
Имя файла D:\FLAC\05 Waiting For You.wav
Длина предзазора 0:00:02.00
Пиковый уровень 100.0 %
Скорость извлечения 6.0 X
Качество трека 100.0 %
CRC теста FF056969
CRC копии FF056969
Точное извлечение (достоверность 1) [DD64008A] (AR v2)
Копирование... OK
Трек 6
Имя файла D:\FLAC\06 Free.wav
Длина предзазора 0:00:02.00
Пиковый уровень 100.0 %
Скорость извлечения 5.2 X
Качество трека 99.9 %
CRC теста 2CAB16A0
CRC копии 2CAB16A0
Точное извлечение (достоверность 1) [C891D702] (AR v2)
Копирование... OK
Трек 7
Имя файла D:\FLAC\07 Sweet Lips.wav
Длина предзазора 0:00:02.00
Пиковый уровень 100.0 %
Скорость извлечения 6.6 X
Качество трека 100.0 %
CRC теста 622B1949
CRC копии 622B1949
Точное извлечение (достоверность 1) [46771E78] (AR v2)
Копирование... OK
Трек 8
Имя файла D:\FLAC\08 Let Me Make You Happy.wav
Длина предзазора 0:00:02.00
Пиковый уровень 96.6 %
Скорость извлечения 6.9 X
Качество трека 100.0 %
CRC теста 1174EB94
CRC копии 1174EB94
Точное извлечение (достоверность 1) [268FA115] (AR v2)
Копирование... OK
Трек 9
Имя файла D:\FLAC\09 Get Fired Up.wav
Длина предзазора 0:00:02.00
Пиковый уровень 100.0 %
Скорость извлечения 6.6 X
Качество трека 99.9 %
CRC теста BA20A918
CRC копии BA20A918
Точное извлечение (достоверность 1) [5FFF71EB] (AR v2)
Копирование... OK
Трек 10
Имя файла D:\FLAC\10 Spread Love.wav
Длина предзазора 0:00:02.00
Пиковый уровень 100.0 %
Скорость извлечения 7.4 X
Качество трека 100.0 %
CRC теста 3E34109B
CRC копии 3E34109B
Точное извлечение (достоверность 1) [7A648F26] (AR v2)
Копирование... OK
Трек 11
Имя файла D:\FLAC\11 Dazz (Long Version).wav
Длина предзазора 0:00:02.00
Пиковый уровень 100.0 %
Скорость извлечения 7.9 X
Качество трека 100.0 %
CRC теста 20C53400
CRC копии 20C53400
Точное извлечение (достоверность 1) [4720A645] (AR v2)
Копирование... OK
Трек 12
Имя файла D:\FLAC\12 Dusic (Long Version).wav
Длина предзазора 0:00:02.00
Пиковый уровень 100.0 %
Скорость извлечения 8.3 X
Качество трека 100.0 %
CRC теста 8E0A963B
CRC копии 8E0A963B
Точное извлечение (достоверность 1) [A8C7E3CE] (AR v2)
Копирование... OK
Все треки извлечены точно
Ошибок не произошло
Конец отчёта
#ИМЯ?
[CTDB TOCID: 0rBoy3Jh.jtWI6rdSIhfAGcSGr4-] found
Submit result: already submitted
Track | CTDB Status
1 | (3/3) Accurately ripped
2 | (3/3) Accurately ripped
3 | (3/3) Accurately ripped
4 | (3/3) Accurately ripped
5 | (3/3) Accurately ripped
6 | (3/3) Accurately ripped
7 | (3/3) Accurately ripped
8 | (3/3) Accurately ripped
9 | (3/3) Accurately ripped
10 | (3/3) Accurately ripped
11 | (3/3) Accurately ripped
12 | (3/3) Accurately ripped
==== Контрольная сумма отчёта 7733936CE57036A9F16FBCC5896F2960F57CCC407996BF5B2B4CFC2683600764 ====
 
Содержание индексной карты (.CUE)
REM DATE 2010
REM DISCID A10C140C
REM COMMENT "ExactAudioCopy v1.0b2"
PERFORMER "Brick"
TITLE "Waiting On You (Expanded Edition)"
FILE "01 Push, Push.wav" WAVE
TRACK 01 AUDIO
TITLE "Push, Push"
PERFORMER "Brick"
INDEX 01 00:00:00
TRACK 02 AUDIO
TITLE "Get Started"
PERFORMER "Brick"
INDEX 00 03:45:39
FILE "02 Get Started.wav" WAVE
INDEX 01 00:00:00
TRACK 03 AUDIO
TITLE "All The Way"
PERFORMER "Brick"
INDEX 00 04:38:14
FILE "03 All The Way.wav" WAVE
INDEX 01 00:00:00
TRACK 04 AUDIO
TITLE "Don't Ever Lose Your Love"
PERFORMER "Brick"
INDEX 00 04:15:08
FILE "04 Don't Ever Lose Your Love.wav" WAVE
INDEX 01 00:00:00
TRACK 05 AUDIO
TITLE "Waiting For You"
PERFORMER "Brick"
INDEX 00 02:50:20
FILE "05 Waiting For You.wav" WAVE
INDEX 01 00:00:00
TRACK 06 AUDIO
TITLE "Free"
PERFORMER "Brick"
INDEX 00 03:55:60
FILE "06 Free.wav" WAVE
INDEX 01 00:00:00
TRACK 07 AUDIO
TITLE "Sweet Lips"
PERFORMER "Brick"
INDEX 00 03:11:67
FILE "07 Sweet Lips.wav" WAVE
INDEX 01 00:00:00
TRACK 08 AUDIO
TITLE "Let Me Make You Happy"
PERFORMER "Brick"
INDEX 00 04:19:13
FILE "08 Let Me Make You Happy.wav" WAVE
INDEX 01 00:00:00
TRACK 09 AUDIO
TITLE "Get Fired Up"
PERFORMER "Brick"
INDEX 00 04:20:24
FILE "09 Get Fired Up.wav" WAVE
INDEX 01 00:00:00
TRACK 10 AUDIO
TITLE "Spread Love"
PERFORMER "Brick"
INDEX 00 04:35:40
FILE "10 Spread Love.wav" WAVE
INDEX 01 00:00:00
TRACK 11 AUDIO
TITLE "Dazz (Long Version)"
PERFORMER "Brick"
INDEX 00 03:56:15
FILE "11 Dazz (Long Version).wav" WAVE
INDEX 01 00:00:00
TRACK 12 AUDIO
TITLE "Dusic (Long Version)"
PERFORMER "Brick"
INDEX 00 05:39:00
FILE "12 Dusic (Long Version).wav" WAVE
INDEX 01 00:00:00
https://www.discogs.com/artist/3451-Brick
Приватный:
Нет (DHT включён)
Размер:
978.39 Мб (1,025,912,182 байт) » файлов: 67
Участники:
0 раздают, 0 качают (0 участников всего)
Внешние участники:
2 раздают, 1 качают (3 участников всего) [ Обновить ]
Есть вопросы - пишите личное сообщение пользователю M0p94ok.
16:31
37
Нет комментариев. Ваш будет первым!