Поиск

(funk, hardcore, indie, jazz) What Cheer? Brigade - We Blow You Suck - 2010, FLAC (tracks+.cue) lossless

(funk, hardcore, indie, jazz) What Cheer? Brigade - We Blow You Suck - 2010, FLAC (tracks+.cue) lossless
Треклист:
What Cheer? Brigade / We Blow You Suck
Жанр: funk, hardcore, indie, jazz
Страна-производитель диска: USA
Год издания диска: 2010 May 25
Издатель (лейбл): Anchor Brain
Страна: USA
Аудио кодек: FLAC (*.flac)
Тип рипа: tracks+.cue
Битрейт аудио: lossless
Продолжительность: 35:37
Источник (релизер): what.cd(paulrob509)
Наличие сканов в содержимом раздачи: нет
Треклист:
01. Malaguena (4:05)
02. Saiyan Re Saiyan (3:32)
03. Green Eyes (5:47)
04. Jahelo (4:16)
05. 13 Monsters (2:32)
06. Disco Bhangra (3:39)
07. L'Orient Est Rouge (2:28)
08. Ederlezi (5:23)
09. Disco Bhangra (3:56)
 
Лог создания рипа
Exact Audio Copy V0.99 prebeta 5 from 4. May 2009
EAC extraction logfile from 7. September 2010, 8:39
What Cheer? Brigade / We Blow You Suck
Used drive : MATSHITADVD-RAM UJ-852 Adapter: 1 ID: 0
Read mode : Secure
Utilize accurate stream : Yes
Defeat audio cache : Yes
Make use of C2 pointers : No
Read offset correction : 132
Overread into Lead-In and Lead-Out : No
Fill up missing offset samples with silence : Yes
Delete leading and trailing silent blocks : No
Null samples used in CRC calculations : Yes
Used interface : Installed external ASPI interface
Gap handling : Appended to previous track
Used output format : User Defined Encoder
Selected bitrate : 768 kBit/s
Quality : High
Add ID3 tag : No
Command line compressor : C:\Program Files\Exact Audio Copy\FLAC\FLAC.EXE
Additional command line options : -V -5 -T "artist=%a" -T "title=%t" -T "album=%g" -T "date=%y" -T "tracknumber=%n" -T "genre=%m" %s
TOC of the extracted CD
Track | Start | Length | Start sector | End sector
---------------------------------------------------------
1 | 0:00.00 | 4:04.58 | 0 | 18357
2 | 4:04.58 | 3:32.24 | 18358 | 34281
3 | 7:37.07 | 5:47.10 | 34282 | 60316
4 | 13:24.17 | 4:15.73 | 60317 | 79514
5 | 17:40.15 | 2:32.10 | 79515 | 90924
6 | 20:12.25 | 3:38.54 | 90925 | 107328
7 | 23:51.04 | 2:27.56 | 107329 | 118409
8 | 26:18.60 | 5:22.48 | 118410 | 142607
9 | 31:41.33 | 3:55.70 | 142608 | 160302
10 | 38:09.28 | 10:09.52 | 171703 | 217429
Track 1
Filename Z:\home\bryce\Desktop\TAG NOW\RIPS\01 - Malaguena.wav
Pre-gap length 0:00:02.00
Peak level 100.0 %
Track quality 100.0 %
Test CRC 1CF0C51C
Copy CRC 1CF0C51C
Copy OK
Track 2
Filename Z:\home\bryce\Desktop\TAG NOW\RIPS\02 - Saiyan Re Saiyan.wav
Pre-gap length 0:00:01.00
Peak level 100.0 %
Track quality 100.0 %
Test CRC 4176CA98
Copy CRC 4176CA98
Copy OK
Track 3
Filename Z:\home\bryce\Desktop\TAG NOW\RIPS\03 - Green Eyes.wav
Pre-gap length 0:00:01.00
Peak level 100.0 %
Track quality 100.0 %
Test CRC 4D86562F
Copy CRC 4D86562F
Copy OK
Track 4
Filename Z:\home\bryce\Desktop\TAG NOW\RIPS\04 - Jahelo.wav
Pre-gap length 0:00:01.00
Peak level 100.0 %
Track quality 100.0 %
Test CRC AAA67F34
Copy CRC AAA67F34
Copy OK
Track 5
Filename Z:\home\bryce\Desktop\TAG NOW\RIPS\05 - 13 Monsters.wav
Pre-gap length 0:00:01.00
Peak level 100.0 %
Track quality 100.0 %
Test CRC 32C44E0E
Copy CRC 32C44E0E
Copy OK
Track 6
Filename Z:\home\bryce\Desktop\TAG NOW\RIPS\06 - Disco Bhangra.wav
Pre-gap length 0:00:01.00
Peak level 100.0 %
Track quality 100.0 %
Test CRC 591A3BB7
Copy CRC 591A3BB7
Copy OK
Track 7
Filename Z:\home\bryce\Desktop\TAG NOW\RIPS\07 - L'Orient Est Rouge.wav
Pre-gap length 0:00:01.00
Peak level 100.0 %
Track quality 99.9 %
Test CRC A2D72669
Copy CRC A2D72669
Copy OK
Track 8
Filename Z:\home\bryce\Desktop\TAG NOW\RIPS\08 - Ederlezi.wav
Pre-gap length 0:00:01.00
Peak level 100.0 %
Track quality 100.0 %
Test CRC A8934B81
Copy CRC A8934B81
Copy OK
Track 9
Filename Z:\home\bryce\Desktop\TAG NOW\RIPS\09 - Disco Bhangra.wav
Pre-gap length 0:00:01.00
Peak level 100.0 %
Track quality 100.0 %
Test CRC 62788CCF
Copy CRC 62788CCF
Copy OK
No errors occurred
End of status report
 
Содержание индексной карты (.CUE)
REM GENRE "Brass Band"
REM DATE 2010
REM DISCID 730B530A
REM COMMENT "ExactAudioCopy v0.99pb5"
PERFORMER "What Cheer? Brigade"
TITLE "We Blow You Suck"
FILE "01 - Malaguena.wav" WAVE
TRACK 01 AUDIO
TITLE "Malaguena"
PERFORMER "What Cheer? Brigade"
INDEX 01 00:00:00
TRACK 02 AUDIO
TITLE "Saiyan Re Saiyan"
PERFORMER "What Cheer? Brigade"
INDEX 00 04:03:58
FILE "02 - Saiyan Re Saiyan.wav" WAVE
INDEX 01 00:00:00
TRACK 03 AUDIO
TITLE "Green Eyes"
PERFORMER "What Cheer? Brigade"
INDEX 00 03:31:24
FILE "03 - Green Eyes.wav" WAVE
INDEX 01 00:00:00
TRACK 04 AUDIO
TITLE "Jahelo"
PERFORMER "What Cheer? Brigade"
INDEX 00 05:46:10
FILE "04 - Jahelo.wav" WAVE
INDEX 01 00:00:00
TRACK 05 AUDIO
TITLE "13 Monsters"
PERFORMER "What Cheer? Brigade"
INDEX 00 04:14:73
FILE "05 - 13 Monsters.wav" WAVE
INDEX 01 00:00:00
TRACK 06 AUDIO
TITLE "Disco Bhangra"
PERFORMER "What Cheer? Brigade"
INDEX 00 02:31:10
FILE "06 - Disco Bhangra.wav" WAVE
INDEX 01 00:00:00
TRACK 07 AUDIO
TITLE "L'Orient Est Rouge"
PERFORMER "What Cheer? Brigade"
INDEX 00 03:37:54
FILE "07 - L'Orient Est Rouge.wav" WAVE
INDEX 01 00:00:00
TRACK 08 AUDIO
TITLE "Ederlezi"
PERFORMER "What Cheer? Brigade"
INDEX 00 02:26:56
FILE "08 - Ederlezi.wav" WAVE
INDEX 01 00:00:00
TRACK 09 AUDIO
TITLE "Disco Bhangra"
PERFORMER "What Cheer? Brigade"
INDEX 00 05:21:48
FILE "09 - Disco Bhangra.wav" WAVE
INDEX 01 00:00:00
TRACK 10 MODEx/2xxx
TITLE "Track10"
PERFORMER "What Cheer? Brigade"
INDEX 00 03:55:70
 
Об исполнителе (группе)
The What Cheer? Brigade is a 19-piece brass band from Providence, RI, USA. Our sound is an aggressive mix of Bollywood, The Balkans, New Orleans, Samba and Hip-Hop, played with the intensity of metal. Since it requires no amplification, some call our sound Luddite Hardcore—proof that loud music doesn’t need electricity. A raucous live experience, the Brigade defies categorization, appealing equally to punks and farmers, old and young. Examiner.com says, “I guarantee you if you ever go to a What Cheer? show you will lose at least 5 lbs from the sweat and dancing that will take over your psyche, blowing your mind into smithereens.” Since 2005, the band has been as likely to appear at community benefits as at all-night parties, playing bars, clubs, streets, libraries, cemeteries, weddings, bus stops, and playgrounds. Now, we’ve joined Anchor Brain Records to reissue our debut, We Blow, You Suck. Discussing the new record, 75 or Less says “Providence’s own alternative marching band has been winning over diverse audiences for five years and counting…. Marching bands tend to have a heavy visual and atmospheric element to them that cannot be replaced, but these are crystal clear…. In short, you have to be a real asshole to hate marching bands.” We’ve played with Dan Deacon, Man Man, Japanther, Dengue Fever, Okkervil River, Lightning Bolt, Ninjasonik, Mika Miko, Wolf Parade, Matt and Kim, Slavic Soul Party, Javelin, Sage Francis, and Chain and the Gang. We’ve appeared at Lollapalooza, Sziget (Hungary), and Guca (Serbia), offering mobile, intense moments of outdoor revelry.
“Best Genre-Defying Act” – Providence Phoenix 2007 Readers Poll
“Best of Rhode Island” – Rhode Island Monthly 2007 Award
 
Состав
official website
17:53
272
Нет комментариев. Ваш будет первым!