Поиск

(Afro-Cuban Jazz) Hugh Masekela - African Breeze: '80s Masekela - 1996, FLAC (tracks+.cue) lossless

(Afro-Cuban Jazz) Hugh Masekela - African Breeze: '80s Masekela - 1996, FLAC (tracks+.cue) lossless
Треклист:
Hugh Masekela / African Breeze: '80s Masekela
Жанр: Afro-Cuban Jazz
Страна-производитель диска: UK
Год издания диска: 1996
Издатель (лейбл): Emporio
Номер по каталогу: EMPRCD 656
Аудио кодек: FLAC (*.flac)
Тип рипа: tracks+.cue
Битрейт аудио: lossless
Продолжительность: 72:07
Источник (релизер): my own rip
Наличие сканов в содержимом раздачи: да
Треклист:
01 - Don't Go Lose It Baby (Stretch Mix) [07:35]
02 - Motla Le Pula (The Rainmaker) [05:38]
03 - African Breeze [05:55]
04 - The Seven Riffs of Africa (Medley) [12:27]
05 - The Joke of Life (Brinca De Vivre) [03:46]
06 - Lady [06:35]
07 - U-DWI [03:23]
08 - Coal Train (Live Version) [07:40]
09 - Zulu Wedding [04:33]
10 - Run No More (A Vuo Mo) [05:07]
11 - Tonight [04:44]
12 - Don't Go Lose It Baby (Dub Mix) [04:39]
 
Лог создания рипа
Exact Audio Copy V0.99 prebeta 5 from 4. May 2009
EAC extraction logfile from 4. September 2010, 11:39
Hugh Masekela / African Breeze : 80's Masekela
Used drive : PLEXTOR DVDR PX-755A Adapter: 4 ID: 0
Read mode : Secure
Utilize accurate stream : Yes
Defeat audio cache : Yes
Make use of C2 pointers : No
Read offset correction : 30
Overread into Lead-In and Lead-Out : Yes
Fill up missing offset samples with silence : Yes
Delete leading and trailing silent blocks : No
Null samples used in CRC calculations : Yes
Used interface : Native Win32 interface for Win NT & 2000
Gap handling : Appended to previous track
Used output format : User Defined Encoder
Selected bitrate : 128 kBit/s
Quality : High
Add ID3 tag : No
Command line compressor : C:\Program Files\FLAC\flac.exe
Additional command line options : -8 -V -T "ARTIST=%a" -T "TITLE=%t" -T "ALBUM=%g" -T "DATE=%y" -T "TRACKNUMBER=%n" -T "GENRE=%m" -T "COMMENT=Ripped by andygrakoff aka yetiisyou" %s
TOC of the extracted CD
Track | Start | Length | Start sector | End sector
---------------------------------------------------------
1 | 0:00.32 | 7:35.00 | 32 | 34156
2 | 7:35.32 | 5:38.30 | 34157 | 59536
3 | 13:13.62 | 5:55.08 | 59537 | 86169
4 | 19:08.70 | 12:27.70 | 86170 | 142264
5 | 31:36.65 | 3:46.47 | 142265 | 159261
6 | 35:23.37 | 6:35.15 | 159262 | 188901
7 | 41:58.52 | 3:23.53 | 188902 | 204179
8 | 45:22.30 | 7:40.05 | 204180 | 238684
9 | 53:02.35 | 4:33.62 | 238685 | 259221
10 | 57:36.22 | 5:07.10 | 259222 | 282256
11 | 62:43.32 | 4:44.70 | 282257 | 303626
12 | 67:28.27 | 4:39.13 | 303627 | 324564
Track 1
Filename C:\!Rips\Hugh Masekela - African Breeze 80's Masekela 1996 (EMPRCD 656)\01 – Don't Go Lose It Baby (Stretch Mix).wav
Pre-gap length 0:00:02.42
Peak level 97.2 %
Track quality 100.0 %
Test CRC AFEC0B0F
Copy CRC AFEC0B0F
Accurately ripped (confidence 3) [FFEE0097]
Copy OK
Track 2
Filename C:\!Rips\Hugh Masekela - African Breeze 80's Masekela 1996 (EMPRCD 656)\02 – Motla Le Pula (The Rainmaker).wav
Peak level 97.1 %
Track quality 100.0 %
Test CRC 7B22D8FF
Copy CRC 7B22D8FF
Accurately ripped (confidence 3) [25C5490A]
Copy OK
Track 3
Filename C:\!Rips\Hugh Masekela - African Breeze 80's Masekela 1996 (EMPRCD 656)\03 – African Breeze.wav
Peak level 97.2 %
Track quality 100.0 %
Test CRC E850791B
Copy CRC E850791B
Accurately ripped (confidence 3) [E47D13A5]
Copy OK
Track 4
Filename C:\!Rips\Hugh Masekela - African Breeze 80's Masekela 1996 (EMPRCD 656)\04 – The Seven Riffs of Africa (Medley).wav
Peak level 97.2 %
Track quality 100.0 %
Test CRC E74F56F0
Copy CRC E74F56F0
Accurately ripped (confidence 3) [214A1FCE]
Copy OK
Track 5
Filename C:\!Rips\Hugh Masekela - African Breeze 80's Masekela 1996 (EMPRCD 656)\05 – The Joke of Life (Brinca De Vivre).wav
Peak level 96.7 %
Track quality 100.0 %
Test CRC A8370696
Copy CRC A8370696
Accurately ripped (confidence 3) [FCF08F77]
Copy OK
Track 6
Filename C:\!Rips\Hugh Masekela - African Breeze 80's Masekela 1996 (EMPRCD 656)\06 – Lady.wav
Peak level 97.2 %
Track quality 100.0 %
Test CRC C1A0D1BC
Copy CRC C1A0D1BC
Accurately ripped (confidence 3) [B5D6648F]
Copy OK
Track 7
Filename C:\!Rips\Hugh Masekela - African Breeze 80's Masekela 1996 (EMPRCD 656)\07 – U-DWI.wav
Pre-gap length 0:00:01.16
Peak level 97.2 %
Track quality 100.0 %
Test CRC EAAEA194
Copy CRC EAAEA194
Accurately ripped (confidence 3) [EC148666]
Copy OK
Track 8
Filename C:\!Rips\Hugh Masekela - African Breeze 80's Masekela 1996 (EMPRCD 656)\08 – Coal Train (Live Version).wav
Peak level 97.2 %
Track quality 100.0 %
Test CRC 064BFCE7
Copy CRC 064BFCE7
Accurately ripped (confidence 3) [617DFCC6]
Copy OK
Track 9
Filename C:\!Rips\Hugh Masekela - African Breeze 80's Masekela 1996 (EMPRCD 656)\09 – Zulu Wedding.wav
Peak level 97.2 %
Track quality 100.0 %
Test CRC 28CC7DD4
Copy CRC 28CC7DD4
Accurately ripped (confidence 3) [03297EDF]
Copy OK
Track 10
Filename C:\!Rips\Hugh Masekela - African Breeze 80's Masekela 1996 (EMPRCD 656)\10 – Run No More (A Vuo Mo).wav
Pre-gap length 0:00:00.46
Peak level 97.2 %
Track quality 100.0 %
Test CRC 685AB6C5
Copy CRC 685AB6C5
Accurately ripped (confidence 3) [F22FB8D2]
Copy OK
Track 11
Filename C:\!Rips\Hugh Masekela - African Breeze 80's Masekela 1996 (EMPRCD 656)\11 – Tonight.wav
Peak level 97.2 %
Track quality 99.9 %
Test CRC A4D0D26C
Copy CRC A4D0D26C
Accurately ripped (confidence 3) [C652BA3C]
Copy OK
Track 12
Filename C:\!Rips\Hugh Masekela - African Breeze 80's Masekela 1996 (EMPRCD 656)\12 – Don't Go Lose It Baby (Dub Mix).wav
Peak level 97.2 %
Track quality 100.0 %
Test CRC 29A2B43E
Copy CRC 29A2B43E
Accurately ripped (confidence 3) [0D01C381]
Copy OK
All tracks accurately ripped
No errors occurred
End of status report
 
Содержание индексной карты (.CUE)
REM DISCID AC10E70C
REM COMMENT "ExactAudioCopy v0.99pb5"
PERFORMER "Hugh Masekela"
TITLE "African Breeze : 80's Masekela"
FILE "01 – Don't Go Lose It Baby (Stretch Mix).wav" WAVE
TRACK 01 AUDIO
TITLE "Don't Go Lose It Baby (Stretch Mix)"
PERFORMER "Hugh Masekela"
PREGAP 00:00:32
INDEX 01 00:00:00
FILE "02 – Motla Le Pula (The Rainmaker).wav" WAVE
TRACK 02 AUDIO
TITLE "Motla Le Pula (The Rainmaker)"
PERFORMER "Hugh Masekela"
INDEX 01 00:00:00
FILE "03 – African Breeze.wav" WAVE
TRACK 03 AUDIO
TITLE "African Breeze"
PERFORMER "Hugh Masekela"
INDEX 01 00:00:00
FILE "04 – The Seven Riffs of Africa (Medley).wav" WAVE
TRACK 04 AUDIO
TITLE "The Seven Riffs of Africa (Medley)"
PERFORMER "Hugh Masekela"
INDEX 01 00:00:00
FILE "05 – The Joke of Life (Brinca De Vivre).wav" WAVE
TRACK 05 AUDIO
TITLE "The Joke of Life (Brinca De Vivre)"
PERFORMER "Hugh Masekela"
INDEX 01 00:00:00
FILE "06 – Lady.wav" WAVE
TRACK 06 AUDIO
TITLE "Lady"
PERFORMER "Hugh Masekela"
INDEX 01 00:00:00
TRACK 07 AUDIO
TITLE "U-DWI"
PERFORMER "Hugh Masekela"
INDEX 00 06:34:03
FILE "07 – U-DWI.wav" WAVE
INDEX 01 00:00:00
FILE "08 – Coal Train (Live Version).wav" WAVE
TRACK 08 AUDIO
TITLE "Coal Train (Live Version)"
PERFORMER "Hugh Masekela"
INDEX 01 00:00:00
FILE "09 – Zulu Wedding.wav" WAVE
TRACK 09 AUDIO
TITLE "Zulu Wedding"
PERFORMER "Hugh Masekela"
INDEX 01 00:00:00
TRACK 10 AUDIO
TITLE "Run No More (A Vuo Mo)"
PERFORMER "Hugh Masekela"
INDEX 00 04:33:27
FILE "10 – Run No More (A Vuo Mo).wav" WAVE
INDEX 01 00:00:00
FILE "11 – Tonight.wav" WAVE
TRACK 11 AUDIO
TITLE "Tonight"
PERFORMER "Hugh Masekela"
INDEX 01 00:00:00
FILE "12 – Don't Go Lose It Baby (Dub Mix).wav" WAVE
TRACK 12 AUDIO
TITLE "Don't Go Lose It Baby (Dub Mix)"
PERFORMER "Hugh Masekela"
INDEX 01 00:00:00
17:52
261
Нет комментариев. Ваш будет первым!