Поиск

(Funk) [CD] Kool & The Gang - Music Is The Message - 1972, FLAC (image+.cue), lossless

(Funk) [CD] Kool & The Gang - Music Is The Message - 1972, FLAC (image+.cue), lossless
Треклист:
Kool & The Gang / Music Is The Message
Жанр: Funk
Носитель: CD
Страна-производитель диска (релиза): EU
Год издания: 1972
Издатель (лейбл): Mercury
Номер по каталогу: 314 532 933-2
Страна исполнителя (группы): US
Аудиокодек: FLAC (*.flac)
Тип рипа: image+.cue
Битрейт аудио: lossless
Продолжительность: 00:34:39
Источник (релизер): AUDELAS KINGDOM
Наличие сканов в содержимом раздачи: нет
01. Music Is The Message
02. Electric Frog (Part 1)
03. Electric Frog (Part 2)
04. Soul Vibrations
05. Love The Life You Live (Parts 1 & 2)
06. Stop, Look, Listen (To Your Heart)
07. Blowin' With The Wind
08. Funky Granny
 
Лог создания рипа
Exact Audio Copy V1.1 from 23. June 2015
EAC extraction logfile from 15. August 2016, 21:26
Kool & The Gang / Music Is The Message
Used drive : ATAPI iHAS124 B Adapter: 1 ID: 0
Read mode : Secure
Utilize accurate stream : Yes
Defeat audio cache : Yes
Make use of C2 pointers : No
Read offset correction : 6
Overread into Lead-In and Lead-Out : No
Fill up missing offset samples with silence : Yes
Delete leading and trailing silent blocks : No
Null samples used in CRC calculations : Yes
Used interface : Native Win32 interface for Win NT & 2000
Used output format : User Defined Encoder
Selected bitrate : 1024 kBit/s
Quality : High
Add ID3 tag : No
Command line compressor : C:\Program Files\Exact Audio Copy\Flac\flac.exe
Additional command line options : -V -8 -T "Date=%year%" -T "Genre=%genre%" %source%
TOC of the extracted CD
Track | Start | Length | Start sector | End sector
---------------------------------------------------------
1 | 0:00.00 | 5:21.54 | 0 | 24128
2 | 5:21.54 | 3:46.30 | 24129 | 41108
3 | 9:08.09 | 3:05.01 | 41109 | 54984
4 | 12:13.10 | 4:42.60 | 54985 | 76194
5 | 16:55.70 | 5:43.60 | 76195 | 101979
6 | 22:39.55 | 3:28.42 | 101980 | 117621
7 | 26:08.22 | 2:34.42 | 117622 | 129213
8 | 28:42.64 | 5:55.61 | 129214 | 155899
Range status and errors
Selected range
Filename D:\Kool & The Gang - Music Is The Message (1972 - 1996 Reissue - FLAC)\Kool & The Gang - Music Is The Message.wav
Peak level 100.0 %
Extraction speed 6.8 X
Range quality 99.9 %
Test CRC BC78618A
Copy CRC BC78618A
Copy OK
No errors occurred
End of status report
==== Log checksum 4D77CCE2366F0861B42E6577EB5E1A74B5B96C4788C7EB8023F2EE84EC8EFD52 ====
Приватный:
Нет (DHT включён)
Размер:
204.44 Мб (214,368,774 байт) » файлов: 7
Участники:
0 раздают, 0 качают (0 участников всего)
Внешние участники:
2 раздают, 1 качают (3 участников всего) [ Обновить ]
Есть вопросы - пишите личное сообщение пользователю M0p94ok.
11:24
68
Нет комментариев. Ваш будет первым!