Поиск

(Funk) [CD] Graham Central Station - Now Do U Wanta Dance - 1977, FLAC (image+.cue), lossless

(Funk) [CD] Graham Central Station - Now Do U Wanta Dance - 1977, FLAC (image+.cue), lossless
Треклист:
Graham Central Station / Now Do U Wanta Dance
Жанр: Funk
Носитель: CD
Страна-производитель диска (релиза): JP
Год издания: 1977
Издатель (лейбл): Warner Bros. Records
Номер по каталогу: WPCR-12918
Страна исполнителя (группы): US
Аудиокодек: FLAC (*.flac)
Тип рипа: image+.cue
Битрейт аудио: lossless
Продолжительность: 00:40:27
Источник (релизер): AUDELAS KINGDOM
Наличие сканов в содержимом раздачи: нет
01. Happ-E-2-C-U-A-Ginn
02. Now Do-U-Wanta Dance
03. Last Train
04. Love And Happiness
05. Earthquake
06. Crazy Chicken
07. Stomped Beat-Up And Whooped
08. Lead Me On
09. Saving My Love For You
10. Have Faith In Me
 
Лог создания рипа
Exact Audio Copy V1.1 from 23. June 2015
EAC extraction logfile from 17. August 2016, 13:16
Graham Central Station / Now Do U Wanta Dance
Used drive : ATAPI iHAS124 B Adapter: 1 ID: 0
Read mode : Secure
Utilize accurate stream : Yes
Defeat audio cache : Yes
Make use of C2 pointers : No
Read offset correction : 6
Overread into Lead-In and Lead-Out : No
Fill up missing offset samples with silence : Yes
Delete leading and trailing silent blocks : No
Null samples used in CRC calculations : Yes
Used interface : Native Win32 interface for Win NT & 2000
Used output format : User Defined Encoder
Selected bitrate : 1024 kBit/s
Quality : High
Add ID3 tag : No
Command line compressor : C:\Program Files\Exact Audio Copy\Flac\flac.exe
Additional command line options : -V -8 -T "Date=%year%" -T "Genre=%genre%" %source%
TOC of the extracted CD
Track | Start | Length | Start sector | End sector
---------------------------------------------------------
1 | 0:00.00 | 1:02.47 | 0 | 4696
2 | 1:02.47 | 3:45.49 | 4697 | 21620
3 | 4:48.21 | 3:40.49 | 21621 | 38169
4 | 8:28.70 | 3:55.00 | 38170 | 55794
5 | 12:23.70 | 6:42.16 | 55795 | 85960
6 | 19:06.11 | 3:56.60 | 85961 | 103720
7 | 23:02.71 | 3:00.66 | 103721 | 117286
8 | 26:03.62 | 3:56.55 | 117287 | 135041
9 | 30:00.42 | 3:40.18 | 135042 | 151559
10 | 33:40.60 | 6:45.20 | 151560 | 181954
Range status and errors
Selected range
Filename D:\Graham Central Station - Now Do U Wanta Dance (1977 - 2008 Reissue - FLAC)\Graham Central Station - Now Do U Wanta Dance.wav
Peak level 100.0 %
Extraction speed 3.2 X
Range quality 100.0 %
Test CRC F2BEC215
Copy CRC F2BEC215
Copy OK
No errors occurred
End of status report
==== Log checksum 01F59F8990E988A9CDB78034D0C7D8F172B8FFDCF957148C30BA42F1AAFA2D84 ====
Приватный:
Нет (DHT включён)
Размер:
240.62 Мб (252,309,622 байт) » файлов: 6
Участники:
0 раздают, 0 качают (0 участников всего)
Внешние участники:
3 раздают, 1 качают (4 участников всего) [ Обновить ]
Есть вопросы - пишите личное сообщение пользователю M0p94ok.
11:25
62
Нет комментариев. Ваш будет первым!