Поиск

(Funk, Blufunk) Keziah Jones - Black Orpheus - 2003, FLAC (image+.cue), lossless

Треклист:
Keziah Jones - Black Orpheus
Жанр: Funk, Blufunk
Год выпуска диска: 2003
Производитель диска: Nigeria
Аудио кодек: FLAC
Тип рипа:image+.cue
Продолжительность: 54'23''
Трэклист:
01 Afrosurrealismfortheladies
02 Kpafuca
03 Femiliarise
04 Wet Questions
05 Neptune
06 72 Kilos
07 All Praises
08 Beautiful Emilie
09 Sadness Is...
10 Autumn Moon
11 Black Orpheus
12 Orin O'lomi
 
Cue sheet
REM GENRE Funk
REM DATE 2003
REM DISCID B811560D
REM COMMENT "ExactAudioCopy v0.99pb5"
PERFORMER "Keziah Jones"
TITLE "Black Orpheus"
FILE "Keziah Jones - 2003 - Black Orpheus.flac" WAVE
TRACK 01 AUDIO
TITLE "Afrosurrealismfortheladies"
PERFORMER "Keziah Jones"
INDEX 01 00:00:00
TRACK 02 AUDIO
TITLE "Kpafuca"
PERFORMER "Keziah Jones"
INDEX 01 04:02:53
TRACK 03 AUDIO
TITLE "Femiliarise"
PERFORMER "Keziah Jones"
INDEX 01 07:53:18
TRACK 04 AUDIO
TITLE "Wet Questions"
PERFORMER "Keziah Jones"
INDEX 01 11:36:24
TRACK 05 AUDIO
TITLE "Neptune"
PERFORMER "Keziah Jones"
INDEX 01 15:54:46
TRACK 06 AUDIO
TITLE "72 Kilos"
PERFORMER "Keziah Jones"
INDEX 01 21:40:02
TRACK 07 AUDIO
TITLE "All Praises"
PERFORMER "Keziah Jones"
INDEX 01 25:31:51
TRACK 08 AUDIO
TITLE "Beautiful Emilie"
PERFORMER "Keziah Jones"
INDEX 01 30:26:42
TRACK 09 AUDIO
TITLE "Sadness Is..."
PERFORMER "Keziah Jones"
INDEX 01 34:53:02
TRACK 10 AUDIO
TITLE "Autumn Moon"
PERFORMER "Keziah Jones"
INDEX 01 38:29:03
TRACK 11 AUDIO
TITLE "Black Orpheus"
PERFORMER "Keziah Jones"
INDEX 01 42:27:10
TRACK 12 AUDIO
TITLE "Orin O'lomi"
PERFORMER "Keziah Jones"
INDEX 01 44:04:23
 
EAC log
Exact Audio Copy V0.99 prebeta 5 from 4. May 2009
EAC extraction logfile from 2. May 2010, 20:52
Keziah Jones / Black Orpheus
Used drive : HL-DT-STDVDRAM GSA-H10A Adapter: 0 ID: 0
Read mode : Secure
Utilize accurate stream : Yes
Defeat audio cache : Yes
Make use of C2 pointers : No
Read offset correction : 667
Overread into Lead-In and Lead-Out : No
Fill up missing offset samples with silence : Yes
Delete leading and trailing silent blocks : No
Null samples used in CRC calculations : Yes
Used interface : Native Win32 interface for Win NT & 2000
Used output format : User Defined Encoder
Selected bitrate : 768 kBit/s
Quality : High
Add ID3 tag : No
Command line compressor : C:\Program Files\Exact Audio Copy\FLAC\FLAC.EXE
Additional command line options : -8 -V -T "ARTIST=%a" -T "TITLE=%t" -T "ALBUM=%g" -T "DATE=%y" -T "TRACKNUMBER=%n" -T "GENRE=%m" -T "COMMENT=EAC FLAC -8" %s
TOC of the extracted CD
Track | Start | Length | Start sector | End sector
---------------------------------------------------------
1 | 0:00.00 | 4:02.53 | 0 | 18202
2 | 4:02.53 | 3:50.40 | 18203 | 35492
3 | 7:53.18 | 3:43.06 | 35493 | 52223
4 | 11:36.24 | 4:18.22 | 52224 | 71595
5 | 15:54.46 | 5:45.31 | 71596 | 97501
6 | 21:40.02 | 3:51.49 | 97502 | 114875
7 | 25:31.51 | 4:54.66 | 114876 | 136991
8 | 30:26.42 | 4:26.35 | 136992 | 156976
9 | 34:53.02 | 3:36.01 | 156977 | 173177
10 | 38:29.03 | 3:58.07 | 173178 | 191034
11 | 42:27.10 | 1:37.13 | 191035 | 198322
12 | 44:04.23 | 10:18.56 | 198323 | 244728
13 | 56:55.04 | 17:02.71 | 256129 | 332849
Range status and errors
Selected range
Filename C:\Documents and Settings\Jpics\Desktop\TEMP\Keziah Jones - 2003 - Black Orpheus\Keziah Jones - 2003 - Black Orpheus.wav
Peak level 99.3 %
Range quality 100.0 %
Test CRC D67B17EC
Copy CRC D67B17EC
Copy OK
No errors occurred
AccurateRip summary
Track 1 cannot be verified as accurate (confidence 7) [144D6419], AccurateRip returned [67B98D68]
Track 2 accurately ripped (confidence 2) [DFC17EEE]
Track 3 accurately ripped (confidence 2) [A4F3A413]
Track 4 accurately ripped (confidence 4) [6AD2FB25]
Track 5 cannot be verified as accurate (confidence 5) [FDB2B8BB], AccurateRip returned [BE606F7D]
Track 6 accurately ripped (confidence 2) [B89DCE4F]
Track 7 accurately ripped (confidence 3) [E2031EFE]
Track 8 cannot be verified as accurate (confidence 6) [4593BA69], AccurateRip returned [78CD0C4C]
Track 9 accurately ripped (confidence 3) [C2D6A450]
Track 10 accurately ripped (confidence 2) [1D42677A]
Track 11 accurately ripped (confidence 4) [5DC9E76C]
Track 12 cannot be verified as accurate (confidence 5) [1735CDE4], AccurateRip returned [28939640]
8 track(s) accurately ripped
4 track(s) could not be verified as accurate
Some tracks could not be verified as accurate
End of status report
Приватный:
Нет (DHT включён)
Размер:
304.83 Мб (319,642,364 байт) » файлов: 4
Участники:
0 раздают, 0 качают (0 участников всего)
Внешние участники:
3 раздают, 1 качают (4 участников всего) [ Обновить ]
Никого нет на раздаче - пишите личное сообщение M0p94ok
No seeders - write personal message to M0p94ok
04:34
51
Нет комментариев. Ваш будет первым!