Поиск

(Blues, Jazz-Rock, Funk) Buddy Miles - Miles Away From Home (MVM 1997-02) - 1997, FLAC (tracks+.cue), lossless

Треклист:
Buddy Miles - Miles Away From Home
Жанр: Blues, Jazz-Rock, Funk
Год выпуска диска: 1997
Производитель диска: Germany \ MVM
Аудио кодек: FLAC
Тип рипа: tracks+.cue
Битрейт аудио: lossless
Продолжительность: 52:30
01 The Change [05:22]
02 Nakupenda Be Be Wa Wa [03:58]
03 Best Friend [04:26]
04 Alright [05:03]
05 Lord Budwick [00:10]
06 Don't Run [05:37]
07 Dreams [05:46]
08 Magic To Me [04:19]
09 Over and Over [04:35]
10 Solve This Problem [04:58]
11 Them Changes [05:15]
12 Miles Away From Home [02:56]

Собственноручный рип с оригинального диска от funky_cat!
 
Log EAC
Exact Audio Copy V0.99 prebeta 5 from 4. May 2009
EAC extraction logfile from 1. May 2010, 22:36
Buddy Miles / Miles Away From Home
Used drive : Optiarc DVD RW AD-5200A Adapter: 1 ID: 0
Read mode : Secure
Utilize accurate stream : Yes
Defeat audio cache : Yes
Make use of C2 pointers : No
Read offset correction : 48
Overread into Lead-In and Lead-Out : No
Fill up missing offset samples with silence : Yes
Delete leading and trailing silent blocks : No
Null samples used in CRC calculations : Yes
Used interface : Native Win32 interface for Win NT & 2000
Gap handling : Appended to previous track
Used output format : User Defined Encoder
Selected bitrate : 1024 kBit/s
Quality : High
Add ID3 tag : No
Command line compressor : C:\Program Files\FLAC\flac.exe
Additional command line options : -5 -V -T "ARTIST=%a" -T "TITLE=%t" -T "ALBUM=%g" -T "DATE=%y" -T "TRACKNUMBER=%n" -T "GENRE=%m" -T "COMMENT=Ripped by andygrakoff aka yetiisyou" %s
TOC of the extracted CD
Track | Start | Length | Start sector | End sector
---------------------------------------------------------
1 | 0:00.00 | 5:22.42 | 0 | 24191
2 | 5:22.42 | 3:58.03 | 24192 | 42044
3 | 9:20.45 | 4:26.12 | 42045 | 62006
4 | 13:46.57 | 5:03.28 | 62007 | 84759
5 | 18:50.10 | 0:10.52 | 84760 | 85561
6 | 19:00.62 | 5:37.60 | 85562 | 110896
7 | 24:38.47 | 5:46.70 | 110897 | 136916
8 | 30:25.42 | 4:19.23 | 136917 | 156364
9 | 34:44.65 | 4:35.30 | 156365 | 177019
10 | 39:20.20 | 4:58.25 | 177020 | 199394
11 | 44:18.45 | 5:15.57 | 199395 | 223076
12 | 49:34.27 | 2:56.15 | 223077 | 236291
Track 1
Filename E:\!Rips\Buddy Miles - Miles Away From Home (mvm 1997-02)\01 - The Change.wav
Pre-gap length 0:00:02.00
Peak level 98.7 %
Track quality 100.0 %
Test CRC E19A92CE
Copy CRC E19A92CE
Track not present in AccurateRip database
Copy OK
Track 2
Filename E:\!Rips\Buddy Miles - Miles Away From Home (mvm 1997-02)\02 - Nakupenda Be Be Wa Wa.wav
Pre-gap length 0:00:02.00
Peak level 98.7 %
Track quality 100.0 %
Test CRC 58CCCA90
Copy CRC 58CCCA90
Track not present in AccurateRip database
Copy OK
Track 3
Filename E:\!Rips\Buddy Miles - Miles Away From Home (mvm 1997-02)\03 - Best Friend.wav
Pre-gap length 0:00:01.80
Peak level 98.7 %
Track quality 100.0 %
Test CRC 76544FD6
Copy CRC 76544FD6
Track not present in AccurateRip database
Copy OK
Track 4
Filename E:\!Rips\Buddy Miles - Miles Away From Home (mvm 1997-02)\04 - Alright.wav
Pre-gap length 0:00:01.76
Peak level 98.9 %
Track quality 100.0 %
Test CRC 279634AB
Copy CRC 279634AB
Track not present in AccurateRip database
Copy OK
Track 5
Filename E:\!Rips\Buddy Miles - Miles Away From Home (mvm 1997-02)\05 - Lord Budwick.wav
Pre-gap length 0:00:02.04
Peak level 98.0 %
Track quality 100.0 %
Test CRC 0C808A06
Copy CRC 0C808A06
Track not present in AccurateRip database
Copy OK
Track 6
Filename E:\!Rips\Buddy Miles - Miles Away From Home (mvm 1997-02)\06 - Don't Run.wav
Peak level 98.7 %
Track quality 100.0 %
Test CRC 49FB4E64
Copy CRC 49FB4E64
Track not present in AccurateRip database
Copy OK
Track 7
Filename E:\!Rips\Buddy Miles - Miles Away From Home (mvm 1997-02)\07 - Dreams.wav
Pre-gap length 0:00:02.00
Peak level 99.0 %
Track quality 100.0 %
Test CRC 3CBEC1DD
Copy CRC 3CBEC1DD
Track not present in AccurateRip database
Copy OK
Track 8
Filename E:\!Rips\Buddy Miles - Miles Away From Home (mvm 1997-02)\08 - Magic To Me.wav
Pre-gap length 0:00:02.02
Peak level 98.5 %
Track quality 99.9 %
Test CRC E57188B8
Copy CRC E57188B8
Track not present in AccurateRip database
Copy OK
Track 9
Filename E:\!Rips\Buddy Miles - Miles Away From Home (mvm 1997-02)\09 - Over and Over.wav
Peak level 99.0 %
Track quality 100.0 %
Test CRC 96AAAFA5
Copy CRC 96AAAFA5
Track not present in AccurateRip database
Copy OK
Track 10
Filename E:\!Rips\Buddy Miles - Miles Away From Home (mvm 1997-02)\10 - Solve This Problem.wav
Pre-gap length 0:00:02.00
Peak level 98.6 %
Track quality 100.0 %
Test CRC FD009B72
Copy CRC FD009B72
Track not present in AccurateRip database
Copy OK
Track 11
Filename E:\!Rips\Buddy Miles - Miles Away From Home (mvm 1997-02)\11 - Them Changes.wav
Peak level 99.0 %
Track quality 99.9 %
Test CRC F0E9EA9B
Copy CRC F0E9EA9B
Track not present in AccurateRip database
Copy OK
Track 12
Filename E:\!Rips\Buddy Miles - Miles Away From Home (mvm 1997-02)\12 - Miles Away From Home.wav
Pre-gap length 0:00:01.62
Peak level 98.7 %
Track quality 100.0 %
Test CRC A3CC266B
Copy CRC A3CC266B
Track not present in AccurateRip database
Copy OK
None of the tracks are present in the AccurateRip database
No errors occurred
End of status report
 
CUE
REM DATE 1997
REM DISCID 9B0C4E0C
REM COMMENT "ExactAudioCopy v0.99pb5"
PERFORMER "Buddy Miles"
TITLE "Miles Away From Home"
FILE "01 - The Change.wav" WAVE
TRACK 01 AUDIO
TITLE "The Change"
PERFORMER "Buddy Miles"
INDEX 01 00:00:00
TRACK 02 AUDIO
TITLE "Nakupenda Be Be Wa Wa"
PERFORMER "Buddy Miles"
INDEX 00 05:20:42
FILE "02 - Nakupenda Be Be Wa Wa.wav" WAVE
INDEX 01 00:00:00
TRACK 03 AUDIO
TITLE "Best Friend"
PERFORMER "Buddy Miles"
INDEX 00 03:56:18
FILE "03 - Best Friend.wav" WAVE
INDEX 01 00:00:00
TRACK 04 AUDIO
TITLE "Alright"
PERFORMER "Buddy Miles"
INDEX 00 04:24:30
FILE "04 - Alright.wav" WAVE
INDEX 01 00:00:00
TRACK 05 AUDIO
TITLE "Lord Budwick"
PERFORMER "Buddy Miles"
INDEX 00 05:01:25
FILE "05 - Lord Budwick.wav" WAVE
INDEX 01 00:00:00
FILE "06 - Don't Run.wav" WAVE
TRACK 06 AUDIO
TITLE "Don't Run"
PERFORMER "Buddy Miles"
INDEX 01 00:00:00
TRACK 07 AUDIO
TITLE "Dreams"
PERFORMER "Buddy Miles"
INDEX 00 05:35:60
FILE "07 - Dreams.wav" WAVE
INDEX 01 00:00:00
TRACK 08 AUDIO
TITLE "Magic To Me"
PERFORMER "Buddy Miles"
INDEX 00 05:44:68
FILE "08 - Magic To Me.wav" WAVE
INDEX 01 00:00:00
FILE "09 - Over and Over.wav" WAVE
TRACK 09 AUDIO
TITLE "Over and Over"
PERFORMER "Buddy Miles"
INDEX 01 00:00:00
TRACK 10 AUDIO
TITLE "Solve This Problem"
PERFORMER "Buddy Miles"
INDEX 00 04:33:30
FILE "10 - Solve This Problem.wav" WAVE
INDEX 01 00:00:00
FILE "11 - Them Changes.wav" WAVE
TRACK 11 AUDIO
TITLE "Them Changes"
PERFORMER "Buddy Miles"
INDEX 01 00:00:00
TRACK 12 AUDIO
TITLE "Miles Away From Home"
PERFORMER "Buddy Miles"
INDEX 00 05:14:10
FILE "12 - Miles Away From Home.wav" WAVE
INDEX 01 00:00:00
Приватный:
Нет (DHT включён)
Размер:
391.27 Мб (410,275,999 байт) » файлов: 19
Участники:
0 раздают, 0 качают (0 участников всего)
Внешние участники:
--- [ Обновить ]
Никого нет на раздаче - пишите личное сообщение M0p94ok
No seeders - write personal message to M0p94ok
04:36
24
Нет комментариев. Ваш будет первым!