Вы используете незарегистрированную версию компонента "Вкладки"!

Поиск

(Free-Noise-Punk-Jazz) Paul Flaherty / Chris Corsano / C. Spencer Yeh - A Rock In The Snow - 2006, FLAC (tracks+.cue) lossless

Треклист:
Paul Flaherty / Chris Corsano / C. Spencer Yeh - A Rock In The Snow
Жанр: Free-Noise-Punk-Jazz
Страна-производитель диска: США
Год издания диска: 2006
Издатель (лейбл): Important Records
Номер по каталогу: imprec095
Страна: США
Аудио кодек: FLAC (*.flac)
Тип рипа: tracks+.cue
Битрейт аудио: lossless
Продолжительность: 55:43
Источник (релизер): вот.сиди (sayswho)
Наличие сканов в содержимом раздачи: нет
Треклист:
1. We Have to Check Your Equipment for Bombs
2. Do You Have Any Prurient Releases?
3. Dirty Firetrucker
4. Sixteen Waltzes in Seventeen Seconds
5. Swamp-Like Heartache
 
Лог создания рипа
Exact Audio Copy V1.0 beta 3 from 29. August 2011
EAC extraction logfile from 24. December 2011, 9:07
Flaherty / Corsano / Yeh / A Rock in the Snow
Used drive : PLEXTOR CD-R PREMIUM Adapter: 5 ID: 0
Read mode : Secure
Utilize accurate stream : Yes
Defeat audio cache : Yes
Make use of C2 pointers : No
Read offset correction : 30
Overread into Lead-In and Lead-Out : Yes
Fill up missing offset samples with silence : Yes
Delete leading and trailing silent blocks : No
Null samples used in CRC calculations : Yes
Used interface : Installed external ASPI interface
Gap handling : Appended to previous track
Used output format : Internal WAV Routines
Sample format : 44.100 Hz; 16 Bit; Stereo
TOC of the extracted CD
Track | Start | Length | Start sector | End sector
---------------------------------------------------------
1 | 0:00.00 | 18:16.10 | 0 | 82209
2 | 18:16.10 | 16:28.56 | 82210 | 156365
3 | 34:44.66 | 4:38.19 | 156366 | 177234
4 | 39:23.10 | 12:37.23 | 177235 | 234032
5 | 52:00.33 | 3:42.33 | 234033 | 250715
Track 1
Filename C:\rip\Flaherty - Corsano - Yeh - A Rock in the Snow (2006)\01 - We Have to Check Your Equipment for Bombs.wav
Pre-gap length 0:00:02.00
Peak level 89.1 %
Extraction speed 7.1 X
Track quality 100.0 %
Test CRC EC028426
Copy CRC EC028426
Accurately ripped (confidence 4) [785C6114] (AR v1)
Copy OK
Track 2
Filename C:\rip\Flaherty - Corsano - Yeh - A Rock in the Snow (2006)\02 - Do You Have Any Prurient Releases.wav
Pre-gap length 0:00:00.45
Peak level 89.1 %
Extraction speed 8.0 X
Track quality 100.0 %
Test CRC AA1465D8
Copy CRC AA1465D8
Accurately ripped (confidence 4) [CCEF91D4] (AR v1)
Copy OK
Track 3
Filename C:\rip\Flaherty - Corsano - Yeh - A Rock in the Snow (2006)\03 - Dirty Firetrucker.wav
Peak level 89.1 %
Extraction speed 13.8 X
Track quality 100.0 %
Test CRC DAB94FD3
Copy CRC DAB94FD3
Accurately ripped (confidence 4) [D6051402] (AR v1)
Copy OK
Track 4
Filename C:\rip\Flaherty - Corsano - Yeh - A Rock in the Snow (2006)\04 - Sixteen Waltzes in Seventeen Seconds.wav
Peak level 89.1 %
Extraction speed 5.6 X
Track quality 99.9 %
Test CRC 05D56CB4
Copy CRC 05D56CB4
Accurately ripped (confidence 4) [E671EAF2] (AR v1)
Copy OK
Track 5
Filename C:\rip\Flaherty - Corsano - Yeh - A Rock in the Snow (2006)\05 - Swamp-Like Heartache.wav
Pre-gap length 0:00:01.45
Peak level 48.6 %
Extraction speed 6.6 X
Track quality 99.9 %
Test CRC A5582BB8
Copy CRC A5582BB8
Accurately ripped (confidence 3) [9F817543] (AR v1)
Copy OK
All tracks accurately ripped
No errors occurred
End of status report
==== Log checksum 0D9FC1DCA323DE6FF8167E34C91E2B4F9208D3798E05CEA12EF826F5D381D4D3 ====
 
Содержание индексной карты (.CUE)
REM GENRE Jazz
REM DATE 2006
REM DISCID 3C0D0E05
REM COMMENT "ExactAudioCopy v1.0b3"
PERFORMER "Flaherty / Corsano / Yeh"
TITLE "A Rock in the Snow"
FILE "01-We_Have_to_Check_Your_Equipment_for_Bombs.wav" WAVE
TRACK 01 AUDIO
TITLE "We Have to Check Your Equipment for Bombs"
PERFORMER "Flaherty / Corsano / Yeh"
INDEX 01 00:00:00
TRACK 02 AUDIO
TITLE "Do You Have Any Prurient Releases?"
PERFORMER "Flaherty / Corsano / Yeh"
INDEX 00 18:15:40
FILE "02-Do_You_Have_Any_Prurient_Releases.wav" WAVE
INDEX 01 00:00:00
FILE "03-Dirty_Firetrucker.wav" WAVE
TRACK 03 AUDIO
TITLE "Dirty Firetrucker"
PERFORMER "Flaherty / Corsano / Yeh"
INDEX 01 00:00:00
FILE "04-Sixteen_Waltzes_in_Seventeen_Seconds.wav" WAVE
TRACK 04 AUDIO
TITLE "Sixteen Waltzes in Seventeen Seconds"
PERFORMER "Flaherty / Corsano / Yeh"
INDEX 01 00:00:00
TRACK 05 AUDIO
TITLE "Swamp-Like Heartache"
PERFORMER "Flaherty / Corsano / Yeh"
INDEX 00 12:35:53
FILE "05-Swamp-Like_Heartache.wav" WAVE
INDEX 01 00:00:00
 
Лог проверки качества
AUDIOCHECKER v2.0 beta (build 457) - by Dester - opdester@freemail.hu
~~~~~~~~~~~~~~~~~~~~~~~~~~~~~~~~~~
-=== DO NOT EDIT THIS FILE! ===-
Path: ...\Flaherty-Corsano-Yeh-A_Rock_in_the_Snow-2006
1 -=- 01-We_Have_to_Check_Your_Equipment_for_Bombs.flac -=- CDDA (100%)
2 -=- 02-Do_You_Have_Any_Prurient_Releases.flac -=- CDDA (100%)
3 -=- 03-Dirty_Firetrucker.flac -=- CDDA (99%)
4 -=- 04-Sixteen_Waltzes_in_Seventeen_Seconds.flac -=- CDDA (99%)
5 -=- 05-Swamp-Like_Heartache.flac -=- CDDA (100%)
Summary 99,60% CDDA
159748740
 
Состав
Paul Flaherty tenor & alto saxophones, voice
Chris Corsano drums
C. Spencer Yeh violin, voice
По всем вопросам пишите личное сообщение пользователю M0p94ok.
08:05
157
Нет комментариев. Ваш будет первым!