Вы используете незарегистрированную версию компонента "Вкладки"!

Поиск

(Free Noise) Masayuki Takayanagi New Direciton Unit - Mass Hysterism In Another Situation - 2006 (1983), FLAC (tracks+.cue), lossless

Треклист:
Masayuki Takayanagi New Direciton Unit - Mass Hysterism In Another Situation
Жанр: Free Noise
Год выпуска диска: 2006 (1983)
Производитель диска: Jinya Disc (B-09)
Источник: вот.сиди (Cohelmec)
Аудио кодек: FLAC
Тип рипа: tracks+.cue
Битрейт аудио: lossless
Продолжительность: 40:36
Трэклист:
Mass Hysterism: In Another Situation
1. (10:01)
2. (10:09)
3. (9:56)
4. (10:29)
continuous performance
Recorded live at Kid Ailack Art Hall, August 14, 1983
New Direction Unit
Masayuki Takayanagi: guitar
Akira Iijima: electric guitar
Hiroshi Yamazaki: drums, percussion
 
Отчёт EAC
Exact Audio Copy V0.99 prebeta 4 from 23. January 2008
EAC extraction logfile from 20. April 2008, 5:22
Masayuki Takayanagi New Direction Unit / Mass Hysterism In Another Situation
Used drive : PLEXTOR DVDR PX-760A Adapter: 1 ID: 0
Read mode : Secure
Utilize accurate stream : Yes
Defeat audio cache : Yes
Make use of C2 pointers : No
Read offset correction : 30
Overread into Lead-In and Lead-Out : No
Fill up missing offset samples with silence : Yes
Delete leading and trailing silent blocks : No
Null samples used in CRC calculations : Yes
Used interface : Installed external ASPI interface
Gap handling : Appended to previous track
Used output format : User Defined Encoder
Selected bitrate : 192 kBit/s
Quality : High
Add ID3 tag : No
Command line compressor : G:\Program Files\MEDIA\filters\Flac official\FLAC\flac.exe
Additional command line options : -8 -V -T "ARTIST=%a" -T "TITLE=%t" -T "ALBUM=%g" -T "DATE=%y" -T "TRACKNUMBER=%n" -T "TOTALTRACKS=%x" -T "GENRE=%m" -T "ALBUMARTIST=%v" -T "ALBUM ARTIST=%v" -T "COMMENT=EAC V0.99 prebeta 4, Secure Mode, Test & Copy, Accurat
TOC of the extracted CD
Track | Start | Length | Start sector | End sector
---------------------------------------------------------
1 | 0:00.00 | 10:01.28 | 0 | 45102
2 | 10:01.28 | 10:08.54 | 45103 | 90756
3 | 20:10.07 | 9:56.44 | 90757 | 135500
4 | 30:06.51 | 10:29.25 | 135501 | 182700
Track 1
Filename E:\uTORRENT\ups\Masayuki Takayanagi - Mass Hysterism in Another Situation (1983) [FLAC]\01 - Mass Hysterism (a).wav
Pre-gap length 0:00:02.00
Peak level 97.8 %
Track quality 99.9 %
Test CRC DB103D05
Copy CRC DB103D05
Track not present in AccurateRip database
Copy OK
Track 2
Filename E:\uTORRENT\ups\Masayuki Takayanagi - Mass Hysterism in Another Situation (1983) [FLAC]\02 - Mass Hysterism (b).wav
Peak level 97.1 %
Track quality 100.0 %
Test CRC D92B2248
Copy CRC D92B2248
Track not present in AccurateRip database
Copy OK
Track 3
Filename E:\uTORRENT\ups\Masayuki Takayanagi - Mass Hysterism in Another Situation (1983) [FLAC]\03 - Mass Hysterism (c).wav
Peak level 97.8 %
Track quality 100.0 %
Test CRC 3A8C746E
Copy CRC 3A8C746E
Track not present in AccurateRip database
Copy OK
Track 4
Filename E:\uTORRENT\ups\Masayuki Takayanagi - Mass Hysterism in Another Situation (1983) [FLAC]\04 - Mass Hysterism (d).wav
Peak level 97.2 %
Track quality 100.0 %
Test CRC 64B5583E
Copy CRC 64B5583E
Track not present in AccurateRip database
Copy OK
None of the tracks are present in the AccurateRip database
No errors occurred
End of status report
 
Отчёт Audiocheckera
AUDIOCHECKER v2.0 beta (build 457) - by Dester - opdester@freemail.hu
~~~~~~~~~~~~~~~~~~~~~~~~~~~~~~~~~~
-=== DO NOT EDIT THIS FILE! ===-
Path: ...\Mass Hysterism
1 -=- 01 - Mass Hysterism (a).flac -=- CDDA (100%)
2 -=- 02 - Mass Hysterism (b).flac -=- CDDA (100%)
3 -=- 03 - Mass Hysterism (c).flac -=- CDDA (100%)
4 -=- 04 - Mass Hysterism (d).flac -=- CDDA (100%)
Summary 100.00% CDDA
220231316
 
cue
REM GENRE Jazz
REM DATE 1983
REM DISCID 22098404
REM COMMENT "ExactAudioCopy v0.99pb4"
PERFORMER "Masayuki Takayanagi New Direction Unit"
TITLE "Mass Hysterism In Another Situation"
FILE "01 - Mass Hysterism (a).wav" WAVE
TRACK 01 AUDIO
TITLE "Mass Hysterism (a)"
PERFORMER "Masayuki Takayanagi New Direction Unit"
INDEX 01 00:00:00
FILE "02 - Mass Hysterism (b).wav" WAVE
TRACK 02 AUDIO
TITLE "Mass Hysterism (b)"
PERFORMER "Masayuki Takayanagi New Direction Unit"
INDEX 01 00:00:00
FILE "03 - Mass Hysterism (c).wav" WAVE
TRACK 03 AUDIO
TITLE "Mass Hysterism (c)"
PERFORMER "Masayuki Takayanagi New Direction Unit"
INDEX 01 00:00:00
FILE "04 - Mass Hysterism (d).wav" WAVE
TRACK 04 AUDIO
TITLE "Mass Hysterism (d)"
PERFORMER "Masayuki Takayanagi New Direction Unit"
INDEX 01 00:00:00
По всем вопросам пишите личное сообщение пользователю M0p94ok.
21:55
165
Нет комментариев. Ваш будет первым!