Поиск

(Free Improvisation) Agusti Fernandez (John Edwards, Mark Sanders)- un llamp que no s'acaba mai - 2009, FLAC (tracks), lossless

Треклист:
Agustí Fernández (John Edwards, Mark Sanders)- un llamp que no s'acaba mai
Жанр: Free Improvisation
Год выпуска диска: 2009
Производитель диска: psi (psi 09.04)
Источник: soulseek
Аудио кодек: FLAC
Тип рипа: tracks
Битрейт аудио: lossless
Продолжительность: 46:42
Трэклист:
1. Primo (13:50)
2. Secondo (9:07)
3. Tertio (10:13)
4. Quatro (13:30)
recorded in concert at Ermita de San Roque, Sigüenza, Spain 7 December 2007
Agustí Fernández piano
John Edwards double bass
Mark Sanders drums
 
Отчёт EAC
V0.99 prebeta 4 from 23. January 2008
Journal d'extraction EAC depuis 1. Mai 2009, 15:43
Agusti Fernбndez / Un llamp que no s'acaba mai
Lecteur utilisй : HL-DT-STDVD-ROM GDR8164B Adapter: 1 ID: 0
Mode lecture : : Sйcurisй SANS C2, SANS flux prйcis, SANS cache dйsactivй
Correction offset йcriture : : 102
Lecture йtendue en lead-in et lead-out : Non
Remplacer les samples manquants par du silence : Oui
Effacer les blocs silencieux situйs en dйbut et fin : Non
: Non
: Interface native Win32 pour Win NT & 2000
:
Format de sortie utilisй : : Encodeur dйfini par l'utilisateur
: 320 kBit/s
: Haut
: Oui
: C:\Program Files\Exact Audio Copy\flac.exe
Options de commande additionnelle : : -T "artist=%a" -T "title=%t" -T "album=%g" -T "date=%y" -T "tracknumber=%n" -T "genre=%m" -5 %s
| | | |
--------------------------------------------
1 | 0:00.00 | 13:50.63 | 0 | 62312
2 | 13:50.63 | 9:07.25 | 62313 | 103362
3 | 22:58.13 | 10:13.22 | 103363 | 149359
4 | 33:11.35 | 13:30.50 | 149360 | 210159
Piste 1
Nom fichier J:\Les disques achetйs par la pomme\\Agusti Fernбndez\Un llamp que no s'acaba mai\01 - Quarto.wav
Niveau max 94.4 %
Qualitй Piste 100.0 %
Copie CRC BBB7892E
Copie Ok
Piste 2
Nom fichier J:\Les disques achetйs par la pomme\\Agusti Fernбndez\Un llamp que no s'acaba mai\02 - Primo.wav
Niveau max 94.4 %
Qualitй Piste 100.0 %
Copie CRC 62FFA841
Copie Ok
Piste 3
Nom fichier J:\Les disques achetйs par la pomme\\Agusti Fernбndez\Un llamp que no s'acaba mai\03 - Secondo.wav
Niveau max 94.4 %
Qualitй Piste 100.0 %
Copie CRC 343DF236
Copie Ok
Piste 4
Nom fichier J:\Les disques achetйs par la pomme\\Agusti Fernбndez\Un llamp que no s'acaba mai\04 - Tertio.wav
Niveau max 94.4 %
Qualitй Piste 100.0 %
Copie CRC 04EC2763
Copie Ok
Pas d'erreur apparue
Fin du rapport d'йtat
 
Отчёт Audiocheckera
AUDIOCHECKER v2.0 beta (build 457) - by Dester - opdester@freemail.hu
~~~~~~~~~~~~~~~~~~~~~~~~~~~~~~~~~~
-=== DO NOT EDIT THIS FILE! ===-
Path: ...\un llamp que no s'acaba mai (psi - 2009)
1 -=- 01 - Quarto.flac -=- CDDA (100%)
2 -=- 02 - Primo.flac -=- CDDA (100%)
3 -=- 03 - Secondo.flac -=- CDDA (100%)
4 -=- 04 - Tertio.flac -=- CDDA (100%)
Summary 100.00% CDDA
34055300
По всем вопросам пишите личное сообщение пользователю M0p94ok.
21:55
222
Нет комментариев. Ваш будет первым!