Вы используете незарегистрированную версию компонента "Вкладки"!

Поиск

(Free Jazz/Modern Jazz) Chico Freeman - Morning Prayer, 1978 (feat H. Threadgill, M. R. Abrams) - 2009, FLAC (image+.cue), lossless

Треклист:
Chico Freeman - Morning Prayer, 1978 (feat H. Threadgill, M. R. Abrams)
Жанр: Free Jazz/Modern Jazz
Год выпуска диска: 2009
Производитель диска: UK (WHYNOT)
Аудио кодек: FLAC
Тип рипа: image+.cue
Битрейт аудио: lossless
Продолжительность: 64:25
Трэклист:
01 Like The Kind of Peace It Is
02 The In Between
03 Conversations
04 Morning Prayer
05 Pepe's Samba
06 Pepe's Samba (long version)
Доп. информация: рип со своего диска
Chico Freeman - ts, ss,fl, pan pipe, prc
Henry Threadgill -as, bs, fl, prc
Muhal Richard Abrams - p
Cecil McBee - b, cello
Steve McCall - d, prc
Ben Montgomery -, prc
Douglas Ewart - b-fl, bamboo-fl, prc
rec Chicago Sep 8, 1978
 
отчёт ЕАС
Exact Audio Copy V0.99 prebeta 5 from 4. May 2009
EAC extraction logfile from 18. April 2010, 11:43
Chico Freeman / Morning Prayer
Used drive : Optiarc DVD RW AD-5200S Adapter: 1 ID: 0
Read mode : Secure
Utilize accurate stream : Yes
Defeat audio cache : Yes
Make use of C2 pointers : No
Read offset correction : 48
Overread into Lead-In and Lead-Out : No
Fill up missing offset samples with silence : Yes
Delete leading and trailing silent blocks : No
Null samples used in CRC calculations : Yes
Used interface : Installed external ASPI interface
Used output format : User Defined Encoder
Selected bitrate : 192 kBit/s
Quality : High
Add ID3 tag : No
Command line compressor : C:\Program Files\Burrrn\flac.exe
Additional command line options : -T "DATE=%y" -T "GENRE=%m" -8 -V %s
TOC of the extracted CD
Track | Start | Length | Start sector | End sector
---------------------------------------------------------
1 | 0:00.00 | 8:06.70 | 0 | 36519
2 | 8:06.70 | 7:51.32 | 36520 | 71876
3 | 15:58.27 | 6:54.00 | 71877 | 102926
4 | 22:52.27 | 12:53.50 | 102927 | 160951
5 | 35:46.02 | 10:04.53 | 160952 | 206304
6 | 45:50.55 | 19:01.02 | 206305 | 291881
Range status and errors
Selected range
Filename F:\EAC\Новая папка\Chico Freeman - Morning Prayer.wav
Peak level 100.0 %
Range quality 99.9 %
Copy CRC 16CFA70E
Copy OK
No errors occurred
AccurateRip summary
Track 1 cannot be verified as accurate (confidence 1) [D94E98DC], AccurateRip returned [837BB4B9]
Track 2 cannot be verified as accurate (confidence 1) [3AFBB438], AccurateRip returned [6C3C712A]
Track 3 cannot be verified as accurate (confidence 1) [3367EBFF], AccurateRip returned [A33063BD]
Track 4 cannot be verified as accurate (confidence 1) [6174F86F], AccurateRip returned [95CE1D26]
Track 5 cannot be verified as accurate (confidence 1) [7EB9BA7C], AccurateRip returned [03301697]
Track 6 cannot be verified as accurate (confidence 1) [7DB0E074], AccurateRip returned [A4DC734D]
No tracks could be verified as accurate
You may have a different pressing from the one(s) in the database
End of status report
Any questions -> support@pro-jazz.com. По всем вопросам пишите -> support@pro-jazz.com
21:26
124
Нет комментариев. Ваш будет первым!