Вы используете незарегистрированную версию компонента "Вкладки"!

Поиск

(Contemporary / Free Jazz) Pierre Labbe - Manivelle - 2009, FLAC (tracks+.cue), lossless

Треклист:
Pierre Labbe - Manivelle
Жанр: Contemporary / Free Jazz
Год выпуска : 2009
Страна: Канада
Лейбл: Ambiances Jazz
Аудио кодек: FLAC
Тип рипа: tracks+.cue
Битрейт аудио: lossless
Продолжительность: 00:42:36
Рип: suspar - What CD


01. Pour le moment (2:42)
02. Corpus (5:42)
03. Manivelle (6:28)
04. Fès (4:48)
05. Matos (5:28)
06. Le mur (3:25)
07. La Kuchika (5:04)
08. Serpents et échelles (4:57)
09. Le 3e souk (4:02)

 
EAC
Exact Audio Copy V0.99 prebeta 5 from 4. May 2009
EAC extraction logfile from 6. April 2010, 21:04
Pierre Labbй / Manivelle
Used drive : _NEC DVD_RW ND-3540A Adapter: 1 ID: 0
Read mode : Secure
Utilize accurate stream : Yes
Defeat audio cache : Yes
Make use of C2 pointers : No
Read offset correction : 48
Overread into Lead-In and Lead-Out : No
Fill up missing offset samples with silence : Yes
Delete leading and trailing silent blocks : No
Null samples used in CRC calculations : Yes
Used interface : Native Win32 interface for Win NT & 2000
Gap handling : Appended to previous track
Used output format : User Defined Encoder
Selected bitrate : 768 kBit/s
Quality : High
Add ID3 tag : No
Command line compressor : C:\Program Files\Exact Audio Copy\FLAC\FLAC.EXE
Additional command line options : -8 -V -T "ARTIST=%a" -T "TITLE=%t" -T "ALBUM=%g" -T "DATE=%y" -T "TRACKNUMBER=%n" -T "GENRE=%m" -T "COMMENT=%e" %s -o %d
TOC of the extracted CD
Track | Start | Length | Start sector | End sector
---------------------------------------------------------
1 | 0:00.00 | 2:42.01 | 0 | 12150
2 | 2:42.01 | 5:42.11 | 12151 | 37811
3 | 8:24.12 | 6:27.71 | 37812 | 66907
4 | 14:52.08 | 4:48.32 | 66908 | 88539
5 | 19:40.40 | 5:28.04 | 88540 | 113143
6 | 25:08.44 | 3:24.63 | 113144 | 128506
7 | 28:33.32 | 5:03.49 | 128507 | 151280
8 | 33:37.06 | 4:56.60 | 151281 | 173540
9 | 38:33.66 | 4:02.36 | 173541 | 191726
Track 1
Filename E:\torrents\Pierre Labbй - 2009 - Manivelle\01 Pour le moment.wav
Pre-gap length 0:00:02.00
Peak level 93.9 %
Track quality 99.9 %
Test CRC 6D947D92
Copy CRC 6D947D92
Track not present in AccurateRip database
Copy OK
Track 2
Filename E:\torrents\Pierre Labbй - 2009 - Manivelle\02 Corpus.wav
Pre-gap length 0:00:03.09
Peak level 97.7 %
Track quality 100.0 %
Test CRC A3D32975
Copy CRC A3D32975
Track not present in AccurateRip database
Copy OK
Track 3
Filename E:\torrents\Pierre Labbй - 2009 - Manivelle\03 Manivelle.wav
Pre-gap length 0:00:02.63
Peak level 97.7 %
Track quality 100.0 %
Test CRC E70D44C1
Copy CRC E70D44C1
Track not present in AccurateRip database
Copy OK
Track 4
Filename E:\torrents\Pierre Labbй - 2009 - Manivelle\04 F s.wav
Pre-gap length 0:00:03.68
Peak level 97.7 %
Track quality 100.0 %
Test CRC D080ADCF
Copy CRC D080ADCF
Track not present in AccurateRip database
Copy OK
Track 5
Filename E:\torrents\Pierre Labbй - 2009 - Manivelle\05 Matos.wav
Pre-gap length 0:00:02.60
Peak level 97.7 %
Track quality 100.0 %
Test CRC E2E21E7F
Copy CRC E2E21E7F
Track not present in AccurateRip database
Copy OK
Track 6
Filename E:\torrents\Pierre Labbй - 2009 - Manivelle\06 Le mur.wav
Pre-gap length 0:00:01.65
Peak level 90.4 %
Track quality 100.0 %
Test CRC 13535115
Copy CRC 13535115
Track not present in AccurateRip database
Copy OK
Track 7
Filename E:\torrents\Pierre Labbй - 2009 - Manivelle\07 La Kuchika.wav
Pre-gap length 0:00:01.62
Peak level 97.7 %
Track quality 100.0 %
Test CRC AE9738BE
Copy CRC AE9738BE
Track not present in AccurateRip database
Copy OK
Track 8
Filename E:\torrents\Pierre Labbй - 2009 - Manivelle\08 Serpents et йchelles.wav
Pre-gap length 0:00:03.15
Peak level 97.7 %
Track quality 100.0 %
Test CRC 8ADCB84E
Copy CRC 8ADCB84E
Track not present in AccurateRip database
Copy OK
Track 9
Filename E:\torrents\Pierre Labbй - 2009 - Manivelle\09 le 3e souk.wav
Pre-gap length 0:00:02.65
Peak level 97.7 %
Track quality 100.0 %
Test CRC 708C8DAA
Copy CRC 708C8DAA
Track not present in AccurateRip database
Copy OK
None of the tracks are present in the AccurateRip database
No errors occurred
End of status report
 
CUE
REM GENRE jazz
REM DATE 2009
REM DISCID 6509FC09
REM COMMENT "ExactAudioCopy v0.99pb5"
PERFORMER "Pierre Labbe"
TITLE "Manivelle"
FILE "01 Pour le moment.wav" WAVE
TRACK 01 AUDIO
TITLE "Pour le moment"
PERFORMER "Pierre Labbe"
ISRC CAA4J0910063
FLAGS DCP
INDEX 01 00:00:00
TRACK 02 AUDIO
TITLE "Corpus"
PERFORMER "Pierre Labbe"
ISRC CAA4J0910062
FLAGS DCP
INDEX 00 02:38:67
FILE "02 Corpus.wav" WAVE
INDEX 01 00:00:00
TRACK 03 AUDIO
TITLE "Manivelle"
PERFORMER "Pierre Labbe"
ISRC CAA4J0910064
FLAGS DCP
INDEX 00 05:39:23
FILE "03 Manivelle.wav" WAVE
INDEX 01 00:00:00
TRACK 04 AUDIO
TITLE "Fes"
PERFORMER "Pierre Labbe"
ISRC CAA4J0910065
FLAGS DCP
INDEX 00 06:24:03
FILE "04 Fes.wav" WAVE
INDEX 01 00:00:00
TRACK 05 AUDIO
TITLE "Matos"
PERFORMER "Pierre Labbe"
ISRC CAA4J0910066
FLAGS DCP
INDEX 00 04:45:47
FILE "05 Matos.wav" WAVE
INDEX 01 00:00:00
TRACK 06 AUDIO
TITLE "Le mur "
PERFORMER "Pierre Labbe"
ISRC CAA4J0910067
FLAGS DCP
INDEX 00 05:26:14
FILE "06 Le mur.wav" WAVE
INDEX 01 00:00:00
TRACK 07 AUDIO
TITLE "La Kuchika"
PERFORMER "Pierre Labbe"
ISRC CAA4J0910068
FLAGS DCP
INDEX 00 03:23:01
FILE "07 La Kuchika.wav" WAVE
INDEX 01 00:00:00
TRACK 08 AUDIO
TITLE "Serpents et echelles"
PERFORMER "Pierre Labbe"
ISRC CAA4J0910069
FLAGS DCP
INDEX 00 05:00:34
FILE "08 Serpents et echelles.wav" WAVE
INDEX 01 00:00:00
TRACK 09 AUDIO
TITLE "le 3e souk"
PERFORMER "Pierre Labbe"
ISRC CAA4J0910070
FLAGS DCP
INDEX 00 04:53:70
FILE "09 Le 3e souk.wav" WAVE
INDEX 01 00:00:00
 
Audiochecker
Started at: воскресенье, 18. 04. 2010. - 15:22.50
9 files found
1 -===- C:\Downloads\Music\Джаз\Pierre Labbe - Manivelle - 2009\01 Pour le moment.flac
Extracted successfully
Conclusion: This track looks like CDDA with probability 100%
Tempfile successfully deleted.
2 -===- C:\Downloads\Music\Джаз\Pierre Labbe - Manivelle - 2009\02 Corpus.flac
Extracted successfully
Conclusion: This track looks like CDDA with probability 100%
Tempfile successfully deleted.
3 -===- C:\Downloads\Music\Джаз\Pierre Labbe - Manivelle - 2009\03 Manivelle.flac
Extracted successfully
Conclusion: This track looks like CDDA with probability 100%
Tempfile successfully deleted.
4 -===- C:\Downloads\Music\Джаз\Pierre Labbe - Manivelle - 2009\04 Fes.flac
Extracted successfully
Conclusion: This track looks like CDDA with probability 100%
Tempfile successfully deleted.
5 -===- C:\Downloads\Music\Джаз\Pierre Labbe - Manivelle - 2009\05 Matos.flac
Extracted successfully
Conclusion: This track looks like CDDA with probability 100%
Tempfile successfully deleted.
6 -===- C:\Downloads\Music\Джаз\Pierre Labbe - Manivelle - 2009\06 Le mur.flac
Extracted successfully
Conclusion: This track looks like CDDA with probability 100%
Tempfile successfully deleted.
7 -===- C:\Downloads\Music\Джаз\Pierre Labbe - Manivelle - 2009\07 La Kuchika.flac
Extracted successfully
Conclusion: This track looks like CDDA with probability 100%
Tempfile successfully deleted.
8 -===- C:\Downloads\Music\Джаз\Pierre Labbe - Manivelle - 2009\08 Serpents et echelles.flac
Extracted successfully
Conclusion: This track looks like CDDA with probability 100%
Tempfile successfully deleted.
9 -===- C:\Downloads\Music\Джаз\Pierre Labbe - Manivelle - 2009\09 le 3e souk.flac
Extracted successfully
Conclusion: This track looks like CDDA with probability 100%
Tempfile successfully deleted.
Finished at: воскресенье, 18. 04. 2010. - 15:30.56 (operation time: 0:08.06)

Pierre Labbe - tenor sax, flute
Isaiah Ceccarelli - drums, percussion
Bernard Falaise - electric guitar
Clinton Ryder - bass
Any questions -> support@pro-jazz.com. По всем вопросам пишите -> support@pro-jazz.com
21:27
173
Нет комментариев. Ваш будет первым!