Вы используете незарегистрированную версию компонента "Вкладки"!

Поиск

( free jazz) Yves Robert - Inspirine 2008, FLAC (tracks+.cue), lossless

( free jazz) Yves Robert - Inspirine 2008, FLAC (tracks+.cue), lossless
Треклист:


Yves Robert - Inspirine 2008

Жанр: free jazz
Год выпуска: 2008
Издатель (лейбл):Chief Inspector
Формат: FLAC (tracks+.cue)
Битрейт аудио: lossless
Продолжительность 52`45
Источник: what.cd

tracks

01. bien dans sa peau
02. signe interieur de richesse
03. aspirer a etre inspire
04. between the bliss and you
05. l'air tres inspire
06. spirituel frisson
07. leche moi la langue
08. creative transpiration
09. wadda u want
10. m'as l'air bien ta peau
11. pas normal, c'est norbien
12. plus de cafeine
13. un gros mikado
14. epanoui c'est nous, oui
15. ''si ! j't'aime'' d'exploitation
16. ni dieu ni applaudimetre


 
.log
Exact Audio Copy V1.0 beta 3 from 29. August 2011
EAC extraction logfile from 3. November 2011, 10:19
Yves Robert / Inspirine
Used drive : hp DVD A DH16AAL Adapter: 0 ID: 1
Read mode : Secure
Utilize accurate stream : Yes
Defeat audio cache : Yes
Make use of C2 pointers : No
Read offset correction : 6
Overread into Lead-In and Lead-Out : No
Fill up missing offset samples with silence : Yes
Delete leading and trailing silent blocks : No
Null samples used in CRC calculations : Yes
Used interface : Native Win32 interface for Win NT & 2000
Gap handling : Appended to previous track
Used output format : User Defined Encoder
Selected bitrate : 1024 kBit/s
Quality : High
Add ID3 tag : No
Command line compressor : C:\Program Files\Exact Audio Copy\Flac\flac.exe
Additional command line options : -8 -V -T "ARTIST=%artist%" -T "TITLE=%title%" -T "ALBUM=%albumtitle%" -T "DATE=%year%" -T "TRACKNUMBER=%tracknr%" -T "GENRE=%genre%" -T "PERFORMER=%albuminterpret%" -T "COMPOSER=%composer%" %haslyrics%--tag-from-file=LYRICS="%lyricsfile%"%haslyrics% -T "ALBUMARTIST=%albumartist%" -T "DISCNUMBER=%cdnumber%" -T "TOTALDISCS=%totalcds%" -T "TOTALTRACKS=%numtracks%" -T "COMMENT=%comment%" %source% -o %dest%
TOC of the extracted CD
Track | Start | Length | Start sector | End sector
---------------------------------------------------------
1 | 0:00.00 | 6:41.69 | 0 | 30143
2 | 6:41.69 | 3:38.68 | 30144 | 46561
3 | 10:20.62 | 2:47.43 | 46562 | 59129
4 | 13:08.30 | 3:42.01 | 59130 | 75780
5 | 16:50.31 | 3:02.39 | 75781 | 89469
6 | 19:52.70 | 3:21.19 | 89470 | 104563
7 | 23:14.14 | 3:32.71 | 104564 | 120534
8 | 26:47.10 | 1:33.42 | 120535 | 127551
9 | 28:20.52 | 2:18.67 | 127552 | 137968
10 | 30:39.44 | 2:39.39 | 137969 | 149932
11 | 33:19.08 | 3:26.25 | 149933 | 165407
12 | 36:45.33 | 2:40.54 | 165408 | 177461
13 | 39:26.12 | 3:41.24 | 177462 | 194060
14 | 43:07.36 | 2:47.05 | 194061 | 206590
15 | 45:54.41 | 1:36.74 | 206591 | 213864
16 | 47:31.40 | 5:13.14 | 213865 | 237353
Track 1
Filename C:\Music\Yves Robert - Inspirine\01. bien dans sa peau.wav
Pre-gap length 0:00:02.00
Peak level 100.0 %
Extraction speed 3.6 X
Track quality 100.0 %
Test CRC 74DFE348
Copy CRC 74DFE348
Track not present in AccurateRip database
Copy OK
Track 2
Filename C:\Music\Yves Robert - Inspirine\02. signe intérieur de richesse.wav
Peak level 90.6 %
Extraction speed 3.9 X
Track quality 100.0 %
Test CRC AF32C408
Copy CRC AF32C408
Track not present in AccurateRip database
Copy OK
Track 3
Filename C:\Music\Yves Robert - Inspirine\03. aspirer à être inspiré.wav
Peak level 100.0 %
Extraction speed 3.9 X
Track quality 100.0 %
Test CRC 980B7CD3
Copy CRC 980B7CD3
Track not present in AccurateRip database
Copy OK
Track 4
Filename C:\Music\Yves Robert - Inspirine\04. between the bliss and you.wav
Peak level 100.0 %
Extraction speed 4.3 X
Track quality 100.0 %
Test CRC DAFF2094
Copy CRC DAFF2094
Track not present in AccurateRip database
Copy OK
Track 5
Filename C:\Music\Yves Robert - Inspirine\05. l'air très inspiré.wav
Peak level 100.0 %
Extraction speed 4.4 X
Track quality 100.0 %
Test CRC CB411E0F
Copy CRC CB411E0F
Track not present in AccurateRip database
Copy OK
Track 6
Filename C:\Music\Yves Robert - Inspirine\06. spirituel frisson.wav
Peak level 99.2 %
Extraction speed 4.7 X
Track quality 100.0 %
Test CRC 62E6424E
Copy CRC 62E6424E
Track not present in AccurateRip database
Copy OK
Track 7
Filename C:\Music\Yves Robert - Inspirine\07. lèche moi la langue.wav
Peak level 100.0 %
Extraction speed 4.9 X
Track quality 100.0 %
Test CRC CDB42F1F
Copy CRC CDB42F1F
Track not present in AccurateRip database
Copy OK
Track 8
Filename C:\Music\Yves Robert - Inspirine\08. créative transpiration.wav
Peak level 100.0 %
Extraction speed 4.2 X
Track quality 100.0 %
Test CRC C77DAF70
Copy CRC C77DAF70
Track not present in AccurateRip database
Copy OK
Track 9
Filename C:\Music\Yves Robert - Inspirine\09. wadda u want.wav
Peak level 100.0 %
Extraction speed 4.8 X
Track quality 100.0 %
Test CRC D6605842
Copy CRC D6605842
Track not present in AccurateRip database
Copy OK
Track 10
Filename C:\Music\Yves Robert - Inspirine\10. m'as l'air bien ta peau.wav
Peak level 99.6 %
Extraction speed 5.0 X
Track quality 100.0 %
Test CRC F6E07814
Copy CRC F6E07814
Track not present in AccurateRip database
Copy OK
Track 11
Filename C:\Music\Yves Robert - Inspirine\11. pas normal, c'est norbien.wav
Peak level 100.0 %
Extraction speed 5.4 X
Track quality 100.0 %
Test CRC 3A4213B8
Copy CRC 3A4213B8
Track not present in AccurateRip database
Copy OK
Track 12
Filename C:\Music\Yves Robert - Inspirine\12. plus de caféïne.wav
Peak level 100.0 %
Extraction speed 5.3 X
Track quality 100.0 %
Test CRC 5DCD0577
Copy CRC 5DCD0577
Track not present in AccurateRip database
Copy OK
Track 13
Filename C:\Music\Yves Robert - Inspirine\13. un gros mikado.wav
Peak level 100.0 %
Extraction speed 5.8 X
Track quality 100.0 %
Test CRC 8FA097CF
Copy CRC 8FA097CF
Track not present in AccurateRip database
Copy OK
Track 14
Filename C:\Music\Yves Robert - Inspirine\14. épanoui c'est nous, oui.wav
Peak level 100.0 %
Extraction speed 5.7 X
Track quality 100.0 %
Test CRC B6C3124D
Copy CRC B6C3124D
Track not present in AccurateRip database
Copy OK
Track 15
Filename C:\Music\Yves Robert - Inspirine\15. ''si ! j't'aime'' d'exploitation.wav
Peak level 100.0 %
Extraction speed 5.1 X
Track quality 100.0 %
Test CRC C210F9F4
Copy CRC C210F9F4
Track not present in AccurateRip database
Copy OK
Track 16
Filename C:\Music\Yves Robert - Inspirine\16. ni dieu ni applaudimètre.wav
Peak level 100.0 %
Extraction speed 6.5 X
Track quality 100.0 %
Test CRC C6A3BAA0
Copy CRC C6A3BAA0
Track not present in AccurateRip database
Copy OK
None of the tracks are present in the AccurateRip database
No errors occurred
End of status report
==== Log checksum 2F733C4443E14400E8CA7DDE2E971189A238CAC0A5426CA849A959BD56FEC8B0 ====
 
.cue
REM GENRE Jazz
REM DISCID D00C5C10
REM COMMENT "ExactAudioCopy v1.0b3"
PERFORMER "Yves Robert"
TITLE "Inspirine"
FILE "01. bien dans sa peau.wav" WAVE
TRACK 01 AUDIO
TITLE "bien dans sa peau"
PERFORMER "Yves Robert"
FLAGS DCP
INDEX 01 00:00:00
FILE "02. signe intérieur de richesse.wav" WAVE
TRACK 02 AUDIO
TITLE "signe intérieur de richesse"
PERFORMER "Yves Robert"
FLAGS DCP
INDEX 01 00:00:00
FILE "03. aspirer à être inspiré.wav" WAVE
TRACK 03 AUDIO
TITLE "aspirer à être inspiré"
PERFORMER "Yves Robert"
FLAGS DCP
INDEX 01 00:00:00
FILE "04. between the bliss and you.wav" WAVE
TRACK 04 AUDIO
TITLE "between the bliss and you"
PERFORMER "Yves Robert"
FLAGS DCP
INDEX 01 00:00:00
FILE "05. l'air très inspiré.wav" WAVE
TRACK 05 AUDIO
TITLE "l'air très inspiré"
PERFORMER "Yves Robert"
FLAGS DCP
INDEX 01 00:00:00
FILE "06. spirituel frisson.wav" WAVE
TRACK 06 AUDIO
TITLE "spirituel frisson"
PERFORMER "Yves Robert"
FLAGS DCP
INDEX 01 00:00:00
FILE "07. lèche moi la langue.wav" WAVE
TRACK 07 AUDIO
TITLE "lèche moi la langue"
PERFORMER "Yves Robert"
FLAGS DCP
INDEX 01 00:00:00
FILE "08. créative transpiration.wav" WAVE
TRACK 08 AUDIO
TITLE "créative transpiration"
PERFORMER "Yves Robert"
FLAGS DCP
INDEX 01 00:00:00
FILE "09. wadda u want.wav" WAVE
TRACK 09 AUDIO
TITLE "wadda u want"
PERFORMER "Yves Robert"
FLAGS DCP
INDEX 01 00:00:00
FILE "10. m'as l'air bien ta peau.wav" WAVE
TRACK 10 AUDIO
TITLE "m'as l'air bien ta peau"
PERFORMER "Yves Robert"
FLAGS DCP
INDEX 01 00:00:00
FILE "11. pas normal, c'est norbien.wav" WAVE
TRACK 11 AUDIO
TITLE "pas normal, c'est norbien"
PERFORMER "Yves Robert"
FLAGS DCP
INDEX 01 00:00:00
FILE "12. plus de caféïne.wav" WAVE
TRACK 12 AUDIO
TITLE "plus de caféïne"
PERFORMER "Yves Robert"
FLAGS DCP
INDEX 01 00:00:00
FILE "13. un gros mikado.wav" WAVE
TRACK 13 AUDIO
TITLE "un gros mikado"
PERFORMER "Yves Robert"
FLAGS DCP
INDEX 01 00:00:00
FILE "14. épanoui c'est nous, oui.wav" WAVE
TRACK 14 AUDIO
TITLE "épanoui c'est nous, oui"
PERFORMER "Yves Robert"
FLAGS DCP
INDEX 01 00:00:00
FILE "15. ''si ! j't'aime'' d'exploitation.wav" WAVE
TRACK 15 AUDIO
TITLE "'si ! j't'aime' d'exploitation"
PERFORMER "Yves Robert"
FLAGS DCP
INDEX 01 00:00:00
FILE "16. ni dieu ni applaudimètre.wav" WAVE
TRACK 16 AUDIO
TITLE "ni dieu ni applaudimètre"
PERFORMER "Yves Robert"
FLAGS DCP
INDEX 01 00:00:00

другие релизы
Any questions -> support@pro-jazz.com. По всем вопросам пишите -> support@pro-jazz.com
07:30
142
Нет комментариев. Ваш будет первым!