Вы используете незарегистрированную версию компонента "Вкладки"!

Поиск

(Free Improvisation / Veto Records) Christoph Erb, Jim Baker, Michael Zerang - erb / baker / zerang / - 2011, FLAC (tracks+.cue), lossless

(Free Improvisation / Veto Records) Christoph Erb, Jim Baker, Michael Zerang - erb / baker / zerang / - 2011, FLAC (tracks+.cue), lossless
Треклист:
Christoph Erb, Jim Baker, Michael Zerang - erb / baker / zerang /
Жанр: Free Improvisation
Страна-производитель диска: Switzerland
Год издания: 2011
Издатель (лейбл): Veto Records
Номер по каталогу: veto-records/exchange 001
Аудиокодек: FLAC (*.flac)
Тип рипа: tracks+.cue
Битрейт аудио: lossless
Продолжительность: 00:46:23
Источник (релизер): what.cd / спасибо 6060842
Наличие сканов в содержимом раздачи: да (photos)
Треклист:
1. Situr (09:24)
2. Opisthoproctidae (08:18)
3. Fesch (03:50)
4. Tauch (05:14)
5. Sakana (06:17)
6. Ogcocephalus (05:19)
7. Devon (07:58)
Доп. информация:
Musicians:
Christoph Erb - tenor saxophone, bass clarinet
Jim Baker - analog synthesizer and piano
Michael Zerang - multiple percussion
Recorded on June 11th, 2011 at Kingsize Studio, Chicago
Christoph Erb, Jim Baker, Michael Zerang - Erb / Baker / Zerang veto-records.ch
Christoph Erb, Jim Baker, Michael Zerang - Erb / Baker / Zerang jazzreview.com
Christoph Erb Official Site
Michael Zerang Official Site
 
... photo ...

 
... review ...
Even though this album by Swiss artist Christoph Erb (reeds) and Chicagoans, Jim Baker (synth & piano) and Michael Zerang (percussion) is often centered on avant-garde sound-shaping implementations, their keen use of space looms as an added instrument. Therefore, it's not always what is stated that counts because the trio leaves room for interpretation and as a result, the program isn't clouded with excesses or superfluous content. Indeed, unorthodox and spiked with minimalism, the musicians explore the capabilities of their instruments via this polytonal endeavor that tenders an undulating environment, spawned by buzzing frameworks and laconic tonal swashes.
The electro-acoustic foundation is an amalgamation of gruff timbres, analog electronics and oddball breakouts. It's perhaps a bit more playful in scope and not overly-cerebral, although these two factors align rather effectively during the course of events. "Tauch," is a prime example of the trio's craft, yet each piece offers various perspectives. Here, Erb's sublime and at times haunting bass clarinet lines ride atop Baker's accenting piano phrasings, tinted by Zerang's colorific percussion work instilled with creaky cymbals and liquefying type qualities.
"Tauch" skirts the perimeter of various fronts. Whether the musicians propose a wistful gait or allude to dour circumstances, the invention and vibrancy translates into a buoyant flow, dappled with subtle surprises. Moreover, the artists goad each other during their dialogues amid spurious developments and fragmented subplots.
Not for the casual listener, but the group's musical mutations summon a concentrated interpretation of the material. Hence, the listening experience may be akin to solving a puzzle, where more clues are divulged on subsequent spins.
Glenn Astarita ~ jazzreview.com
 
Лог создания рипа
X Lossless Decoder version 20121222 (142.2)
XLD extraction logfile from 2013-01-02 04:47:28 +0400
Christoph Erb, Jim Baker, Michael Zerang / Erb / Baker / Zerang
Used drive : HL-DT-ST DVDRW GX30N (revision RP09)
Media type : Pressed CD
Ripper mode : XLD Secure Ripper
Disable audio cache : OK for the drive with a cache less than 1375KiB
Make use of C2 pointers : NO
Read offset correction : 6
Max retry count : 20
Gap status : Analyzed, Appended
TOC of the extracted CD
Track | Start | Length | Start sector | End sector
---------------------------------------------------------
1 | 00:00:00 | 09:24:07 | 0 | 42306
2 | 09:24:07 | 08:18:63 | 42307 | 79719
3 | 17:42:70 | 03:50:27 | 79720 | 96996
4 | 21:33:22 | 05:14:46 | 96997 | 120592
5 | 26:47:68 | 06:17:34 | 120593 | 148901
6 | 33:05:27 | 05:19:30 | 148902 | 172856
7 | 38:24:57 | 07:58:62 | 172857 | 208768
AccurateRip Summary
Disc not found in AccurateRip DB.
All Tracks
Album gain : -3.86 dB
Peak : 1.000000
Statistics
Read error : 0
Jitter error (maybe fixed) : 0
Retry sector count : 0
Damaged sector count : 0
Track 01
Filename : /Users/anch/Music/FLAC/Christoph Erb, Jim Baker, Michael Zerang - 2011 - Erb / Baker / Zerang [FLAC]/01 - Silur.flac
/Users/anch/Music/FLAC/Christoph Erb, Jim Baker, Michael Zerang - 2011 - Erb / Baker / Zerang [MP3 320]/01 - Silur.mp3
/Users/anch/Music/FLAC/Christoph Erb, Jim Baker, Michael Zerang - 2011 - Erb / Baker / Zerang [MP3 V0]/01 - Silur.mp3
Pre-gap length : 00:02:00
Track gain : -3.17 dB
Peak : 1.000000
CRC32 hash (test run) : 94A76B57
CRC32 hash : 94A76B57
CRC32 hash (skip zero) : 20558B65
AccurateRip v1 signature : DB84C3AE
AccurateRip v2 signature : 31E6DADB
->Track not present in AccurateRip database.
Statistics
Read error : 0
Jitter error (maybe fixed) : 0
Retry sector count : 0
Damaged sector count : 0
Track 02
Filename : /Users/anch/Music/FLAC/Christoph Erb, Jim Baker, Michael Zerang - 2011 - Erb / Baker / Zerang [FLAC]/02 - Opisthoproctidae.flac
/Users/anch/Music/FLAC/Christoph Erb, Jim Baker, Michael Zerang - 2011 - Erb / Baker / Zerang [MP3 320]/02 - Opisthoproctidae.mp3
/Users/anch/Music/FLAC/Christoph Erb, Jim Baker, Michael Zerang - 2011 - Erb / Baker / Zerang [MP3 V0]/02 - Opisthoproctidae.mp3
Track gain : -5.22 dB
Peak : 1.000000
CRC32 hash (test run) : 70CFE040
CRC32 hash : 70CFE040
CRC32 hash (skip zero) : 212E9567
AccurateRip v1 signature : B6AD832E
AccurateRip v2 signature : 35DBE8ED
->Track not present in AccurateRip database.
Statistics
Read error : 0
Jitter error (maybe fixed) : 0
Retry sector count : 0
Damaged sector count : 0
Track 03
Filename : /Users/anch/Music/FLAC/Christoph Erb, Jim Baker, Michael Zerang - 2011 - Erb / Baker / Zerang [FLAC]/03 - Fesch.flac
/Users/anch/Music/FLAC/Christoph Erb, Jim Baker, Michael Zerang - 2011 - Erb / Baker / Zerang [MP3 320]/03 - Fesch.mp3
/Users/anch/Music/FLAC/Christoph Erb, Jim Baker, Michael Zerang - 2011 - Erb / Baker / Zerang [MP3 V0]/03 - Fesch.mp3
Track gain : 8.35 dB
Peak : 0.590179
CRC32 hash (test run) : DC874B90
CRC32 hash : DC874B90
CRC32 hash (skip zero) : F1BD1D87
AccurateRip v1 signature : 1958EF64
AccurateRip v2 signature : BF4DB8E4
->Track not present in AccurateRip database.
Statistics
Read error : 0
Jitter error (maybe fixed) : 0
Retry sector count : 0
Damaged sector count : 0
Track 04
Filename : /Users/anch/Music/FLAC/Christoph Erb, Jim Baker, Michael Zerang - 2011 - Erb / Baker / Zerang [FLAC]/04 - Tauch.flac
/Users/anch/Music/FLAC/Christoph Erb, Jim Baker, Michael Zerang - 2011 - Erb / Baker / Zerang [MP3 320]/04 - Tauch.mp3
/Users/anch/Music/FLAC/Christoph Erb, Jim Baker, Michael Zerang - 2011 - Erb / Baker / Zerang [MP3 V0]/04 - Tauch.mp3
Track gain : -2.84 dB
Peak : 1.000000
CRC32 hash (test run) : 13142A6F
CRC32 hash : 13142A6F
CRC32 hash (skip zero) : 68E4B9D7
AccurateRip v1 signature : B24A555B
AccurateRip v2 signature : 529BFBCC
->Track not present in AccurateRip database.
Statistics
Read error : 0
Jitter error (maybe fixed) : 0
Retry sector count : 0
Damaged sector count : 0
Track 05
Filename : /Users/anch/Music/FLAC/Christoph Erb, Jim Baker, Michael Zerang - 2011 - Erb / Baker / Zerang [FLAC]/05 - Sakana.flac
/Users/anch/Music/FLAC/Christoph Erb, Jim Baker, Michael Zerang - 2011 - Erb / Baker / Zerang [MP3 320]/05 - Sakana.mp3
/Users/anch/Music/FLAC/Christoph Erb, Jim Baker, Michael Zerang - 2011 - Erb / Baker / Zerang [MP3 V0]/05 - Sakana.mp3
Track gain : -2.93 dB
Peak : 0.999969
CRC32 hash (test run) : E57321C4
CRC32 hash : E57321C4
CRC32 hash (skip zero) : 8DAABEB6
AccurateRip v1 signature : 7FB0F4C8
AccurateRip v2 signature : A320E776
->Track not present in AccurateRip database.
Statistics
Read error : 0
Jitter error (maybe fixed) : 0
Retry sector count : 0
Damaged sector count : 0
Track 06
Filename : /Users/anch/Music/FLAC/Christoph Erb, Jim Baker, Michael Zerang - 2011 - Erb / Baker / Zerang [FLAC]/06 - Ogcocephalus.flac
/Users/anch/Music/FLAC/Christoph Erb, Jim Baker, Michael Zerang - 2011 - Erb / Baker / Zerang [MP3 320]/06 - Ogcocephalus.mp3
/Users/anch/Music/FLAC/Christoph Erb, Jim Baker, Michael Zerang - 2011 - Erb / Baker / Zerang [MP3 V0]/06 - Ogcocephalus.mp3
Track gain : -4.01 dB
Peak : 0.999969
CRC32 hash (test run) : 7D8F658F
CRC32 hash : 7D8F658F
CRC32 hash (skip zero) : 790697BF
AccurateRip v1 signature : 0C1496DD
AccurateRip v2 signature : 2672D5B6
->Track not present in AccurateRip database.
Statistics
Read error : 0
Jitter error (maybe fixed) : 0
Retry sector count : 0
Damaged sector count : 0
Track 07
Filename : /Users/anch/Music/FLAC/Christoph Erb, Jim Baker, Michael Zerang - 2011 - Erb / Baker / Zerang [FLAC]/07 - Devon.flac
/Users/anch/Music/FLAC/Christoph Erb, Jim Baker, Michael Zerang - 2011 - Erb / Baker / Zerang [MP3 320]/07 - Devon.mp3
/Users/anch/Music/FLAC/Christoph Erb, Jim Baker, Michael Zerang - 2011 - Erb / Baker / Zerang [MP3 V0]/07 - Devon.mp3
Track gain : -4.25 dB
Peak : 1.000000
CRC32 hash (test run) : 87E2ED98
CRC32 hash : 87E2ED98
CRC32 hash (skip zero) : 87BAEF3C
AccurateRip v1 signature : E7739569
AccurateRip v2 signature : F720C2C5
->Track not present in AccurateRip database.
Statistics
Read error : 0
Jitter error (maybe fixed) : 0
Retry sector count : 0
Damaged sector count : 0
No errors occurred
End of status report
 
Содержание индексной карты (.CUE)
TITLE "Erb / Baker / Zerang"
PERFORMER "Christoph Erb, Jim Baker, Michael Zerang"
REM GENRE "Freest Jazzyle"
REM DATE "2011"
REM DISCID 630ADF07
REM REPLAYGAIN_ALBUM_GAIN -3.86 dB
REM REPLAYGAIN_ALBUM_PEAK 1.000000
FILE "01 - Silur.flac" WAVE
TRACK 01 AUDIO
TITLE "Silur"
PERFORMER "Christoph Erb, Jim Baker, Michael Zerang"
SONGWRITER "Christoph Erb, Jim Baker, Michael Zerang"
REM REPLAYGAIN_TRACK_GAIN -3.17 dB
REM REPLAYGAIN_TRACK_PEAK 1.000000
INDEX 01 00:00:00
FILE "02 - Opisthoproctidae.flac" WAVE
TRACK 02 AUDIO
TITLE "Opisthoproctidae"
PERFORMER "Christoph Erb, Jim Baker, Michael Zerang"
SONGWRITER "Christoph Erb, Jim Baker, Michael Zerang"
REM REPLAYGAIN_TRACK_GAIN -5.22 dB
REM REPLAYGAIN_TRACK_PEAK 1.000000
INDEX 01 00:00:00
FILE "03 - Fesch.flac" WAVE
TRACK 03 AUDIO
TITLE "Fesch"
PERFORMER "Christoph Erb, Jim Baker, Michael Zerang"
SONGWRITER "Christoph Erb, Jim Baker, Michael Zerang"
REM REPLAYGAIN_TRACK_GAIN 8.35 dB
REM REPLAYGAIN_TRACK_PEAK 0.590179
INDEX 01 00:00:00
FILE "04 - Tauch.flac" WAVE
TRACK 04 AUDIO
TITLE "Tauch"
PERFORMER "Christoph Erb, Jim Baker, Michael Zerang"
SONGWRITER "Christoph Erb, Jim Baker, Michael Zerang"
REM REPLAYGAIN_TRACK_GAIN -2.84 dB
REM REPLAYGAIN_TRACK_PEAK 1.000000
INDEX 01 00:00:00
FILE "05 - Sakana.flac" WAVE
TRACK 05 AUDIO
TITLE "Sakana"
PERFORMER "Christoph Erb, Jim Baker, Michael Zerang"
SONGWRITER "Christoph Erb, Jim Baker, Michael Zerang"
REM REPLAYGAIN_TRACK_GAIN -2.93 dB
REM REPLAYGAIN_TRACK_PEAK 0.999969
INDEX 01 00:00:00
FILE "06 - Ogcocephalus.flac" WAVE
TRACK 06 AUDIO
TITLE "Ogcocephalus"
PERFORMER "Christoph Erb, Jim Baker, Michael Zerang"
SONGWRITER "Christoph Erb, Jim Baker, Michael Zerang"
REM REPLAYGAIN_TRACK_GAIN -4.01 dB
REM REPLAYGAIN_TRACK_PEAK 0.999969
INDEX 01 00:00:00
FILE "07 - Devon.flac" WAVE
TRACK 07 AUDIO
TITLE "Devon"
PERFORMER "Christoph Erb, Jim Baker, Michael Zerang"
SONGWRITER "Christoph Erb, Jim Baker, Michael Zerang"
REM REPLAYGAIN_TRACK_GAIN -4.25 dB
REM REPLAYGAIN_TRACK_PEAK 1.000000
INDEX 01 00:00:00
 
auCDtect Task Manager
-----------------------
DON'T MODIFY THIS FILE
-----------------------
PERFORMER: auCDtect Task Manager, ver. 1.5.1RC6 build 1.5.1.7
Copyright (c) 2008-2010 y-soft. All rights reserved
http://y-soft.org
ANALYZER: auCDtect: CD records authenticity detector, version 0.8.2
Copyright (c) 2004 Oleg Berngardt. All rights reserved.
Copyright (c) 2004 Alexander Djourik. All rights reserved.
FILE: 07 - Devon.flac
Size: 41647463 Hash: 2CB690D6F72253F6DC8E40A908409669 Accuracy: -m0
Conclusion: CDDA 94%
Signature: DB06E26A917CC90B355F0071BB436ED721CD8ECA
FILE: 06 - Ogcocephalus.flac
Size: 30272536 Hash: A910BA35E29842E370129B654DD5F4B4 Accuracy: -m0
Conclusion: CDDA 100%
Signature: 0052874A2913A601B997CAE6C9F7B2DE96C52DC1
FILE: 05 - Sakana.flac
Size: 30467939 Hash: 30075ECB5EB9F37B60E6FB23535D9C30 Accuracy: -m0
Conclusion: CDDA 76%
Signature: 0D4907E7F0C0016581EF4BA7A6732A6AC91A9A81
FILE: 04 - Tauch.flac
Size: 23644339 Hash: 3DC8E4255607BB97E9EEA829B527AD98 Accuracy: -m0
Conclusion: CDDA 100%
Signature: B2746A21EA242C2CEEC25C907D13A8262FE1F925
FILE: 03 - Fesch.flac
Size: 13469055 Hash: 79F19DDEFA85F89D88118925FBCA4851 Accuracy: -m0
Conclusion: CDDA 100%
Signature: 462C8EA241AB13F84636E180D9C755E1266C4535
FILE: 02 - Opisthoproctidae.flac
Size: 44920957 Hash: C2F4831D0A9E79A0381C0420B8BFA912 Accuracy: -m0
Conclusion: CDDA 100%
Signature: 9D47BB7890D6EF1E86AD26CA8EC6D32A83C19D02
FILE: 01 - Silur.flac
Size: 54747021 Hash: D8335820C9E396C7AB94595814F40711 Accuracy: -m0
Conclusion: CDDA 100%
Signature: 5A5C470789CD431CE0242733310BEDCE0927BF16
... релизы с участием MICHAEL ZERANG на трекере ...
Any questions -> support@pro-jazz.com. По всем вопросам пишите -> support@pro-jazz.com
07:29
267
Нет комментариев. Ваш будет первым!