Вы используете незарегистрированную версию компонента "Вкладки"!

Поиск

(free jazz) World Saxophone Quartet - Metamorphosis (1991), FLAC (tracks+.cue), lossless

(free jazz) World Saxophone Quartet - Metamorphosis (1991), FLAC (tracks+.cue), lossless
Треклист:

World Saxophone Quartet - Metamorphosis (1991)
Жанр: free jazz
Год издания: 1991
Издатель (лейбл): Nonesuch
Аудиокодек: FLAC (*.flac)
Тип рипа: tracks+.cue
Битрейт аудио: lossless
Продолжительность: 1`01`54
Источник (релизер): what.cd
Наличие сканов в содержимом раздачи: нет
Треклист:
1 - The Holy Men (2:48)
2 - Lullaby (4:51)
3 - Metamorphosis (3:28)
4 - Su Mama Ah Zumu (6:25)
5 - Africa (8:54)
6 - Ballad for the Black Man (7:52)
7 - Masai Warriors Dance (5:14)
8 - Love Like Sisters (4:07)
9 - Lo Chi Lo (6:57)
10 - Feed the People (10:56)
 
Лог создания рипа
X Lossless Decoder version 20120120 (139.0)
XLD extraction logfile from 2012-02-14 16:57:17 -0800
World Saxophone Quartet / Metamorphosis
Used drive : MATSHITA DVD-R UJ-898 (revision HE13)
Ripper mode : XLD Secure Ripper
Disable audio cache : OK for the drive with a cache less than 1375KiB
Make use of C2 pointers : NO
Read offset correction : 102
Max retry count : 20
Gap status : Analyzed, Appended (except HTOA)
TOC of the extracted CD
Track | Start | Length | Start sector | End sector
---------------------------------------------------------
1 | 00:00:32 | 02:50:05 | 32 | 12786
2 | 02:50:37 | 04:52:58 | 12787 | 34744
3 | 07:43:20 | 03:30:60 | 34745 | 50554
4 | 11:14:05 | 06:27:22 | 50555 | 79601
5 | 17:41:27 | 08:56:40 | 79602 | 119841
6 | 26:37:67 | 07:53:73 | 119842 | 155389
7 | 34:31:65 | 05:16:62 | 155390 | 179151
8 | 39:48:52 | 04:08:40 | 179152 | 197791
9 | 43:57:17 | 07:00:03 | 197792 | 229294
10 | 50:57:20 | 10:57:02 | 229295 | 278571
AccurateRip Summary
Track 01 : OK (confidence 9)
Track 02 : OK (confidence 9)
Track 03 : OK (confidence 9)
Track 04 : OK (confidence 8)
Track 05 : OK (confidence 9)
Track 06 : OK (confidence 9)
Track 07 : OK (confidence 9)
Track 08 : OK (confidence 10)
Track 09 : OK (confidence 10)
Track 10 : OK (confidence 9)
->All tracks accurately ripped.
All Tracks
Album gain : -1.16 dB
Peak : 0.900055
Statistics
Read error : 0
Jitter error (maybe fixed) : 0
Retry sector count : 0
Damaged sector count : 0
Track 01
Filename : /Volumes/Julian's Media/Music/Lossless Rips/World Saxophone Quartet - Metamorphosis (2006) [FLAC]/01 The Holy Men (LP Version).flac
Pre-gap length : 00:02:32
Track gain : -1.40 dB
Peak : 0.773376
CRC32 hash (test run) : F004986D
CRC32 hash : F004986D
CRC32 hash (skip zero) : BC29E9EF
AccurateRip signature : 4790734A
->Accurately ripped! (confidence 9)
Statistics
Read error : 0
Jitter error (maybe fixed) : 0
Retry sector count : 0
Damaged sector count : 0
Track 02
Filename : /Volumes/Julian's Media/Music/Lossless Rips/World Saxophone Quartet - Metamorphosis (2006) [FLAC]/02 Lullaby (LP Version).flac
Pre-gap length : 00:01:32
Track gain : 0.20 dB
Peak : 0.803986
CRC32 hash (test run) : 3D13792F
CRC32 hash : 3D13792F
CRC32 hash (skip zero) : 7FBECB29
AccurateRip signature : A7F1784E
->Accurately ripped! (confidence 9)
Statistics
Read error : 0
Jitter error (maybe fixed) : 0
Retry sector count : 0
Damaged sector count : 0
Track 03
Filename : /Volumes/Julian's Media/Music/Lossless Rips/World Saxophone Quartet - Metamorphosis (2006) [FLAC]/03 Metamorphosis (LP Version).flac
Pre-gap length : 00:00:60
Track gain : -2.27 dB
Peak : 0.848969
CRC32 hash (test run) : 588A66BF
CRC32 hash : 588A66BF
CRC32 hash (skip zero) : 43E8D93F
AccurateRip signature : C0A93DEA
->Accurately ripped! (confidence 9)
Statistics
Read error : 0
Jitter error (maybe fixed) : 0
Retry sector count : 0
Damaged sector count : 0
Track 04
Filename : /Volumes/Julian's Media/Music/Lossless Rips/World Saxophone Quartet - Metamorphosis (2006) [FLAC]/04 Su Mama Ah Zumu (LP Version).flac
Pre-gap length : 00:01:18
Track gain : -0.76 dB
Peak : 0.872070
CRC32 hash (test run) : C6FE958A
CRC32 hash : C6FE958A
CRC32 hash (skip zero) : ACA76289
AccurateRip signature : E24749BC
->Accurately ripped! (confidence 8)
Statistics
Read error : 0
Jitter error (maybe fixed) : 0
Retry sector count : 0
Damaged sector count : 0
Track 05
Filename : /Volumes/Julian's Media/Music/Lossless Rips/World Saxophone Quartet - Metamorphosis (2006) [FLAC]/05 Africa (LP Version).flac
Pre-gap length : 00:01:42
Track gain : -0.07 dB
Peak : 0.900055
CRC32 hash (test run) : 56098C6A
CRC32 hash : 56098C6A
CRC32 hash (skip zero) : 5E0CA33F
AccurateRip signature : FBC3DDA3
->Accurately ripped! (confidence 9)
Statistics
Read error : 0
Jitter error (maybe fixed) : 0
Retry sector count : 0
Damaged sector count : 0
Track 06
Filename : /Volumes/Julian's Media/Music/Lossless Rips/World Saxophone Quartet - Metamorphosis (2006) [FLAC]/06 Ballad For The Black Man (LP Version).flac
Pre-gap length : 00:02:00
Track gain : 0.32 dB
Peak : 0.760132
CRC32 hash (test run) : 402EA4DD
CRC32 hash : 402EA4DD
CRC32 hash (skip zero) : FD023DC3
AccurateRip signature : B9C995CC
->Accurately ripped! (confidence 9)
Statistics
Read error : 0
Jitter error (maybe fixed) : 0
Retry sector count : 0
Damaged sector count : 0
Track 07
Filename : /Volumes/Julian's Media/Music/Lossless Rips/World Saxophone Quartet - Metamorphosis (2006) [FLAC]/07 Masai Warriors Dance (LP Version).flac
Pre-gap length : 00:01:33
Track gain : -1.62 dB
Peak : 0.712494
CRC32 hash (test run) : 9A3C7B66
CRC32 hash : 9A3C7B66
CRC32 hash (skip zero) : 97E72413
AccurateRip signature : 3AA5D183
->Accurately ripped! (confidence 9)
Statistics
Read error : 0
Jitter error (maybe fixed) : 0
Retry sector count : 0
Damaged sector count : 0
Track 08
Filename : /Volumes/Julian's Media/Music/Lossless Rips/World Saxophone Quartet - Metamorphosis (2006) [FLAC]/08 Love Like Sisters (LP Version).flac
Pre-gap length : 00:01:70
Track gain : -1.49 dB
Peak : 0.647125
CRC32 hash (test run) : 1DF45806
CRC32 hash : 1DF45806
CRC32 hash (skip zero) : 3F19BCB0
AccurateRip signature : ABFC4D6A
->Accurately ripped! (confidence 10)
Statistics
Read error : 0
Jitter error (maybe fixed) : 0
Retry sector count : 0
Damaged sector count : 0
Track 09
Filename : /Volumes/Julian's Media/Music/Lossless Rips/World Saxophone Quartet - Metamorphosis (2006) [FLAC]/09 Lo Chi Lo (LP Version).flac
Pre-gap length : 00:01:15
Track gain : -1.48 dB
Peak : 0.764557
CRC32 hash (test run) : 47D65187
CRC32 hash : 47D65187
CRC32 hash (skip zero) : 53629E82
AccurateRip signature : C0DBA784
->Accurately ripped! (confidence 10)
Statistics
Read error : 0
Jitter error (maybe fixed) : 0
Retry sector count : 0
Damaged sector count : 0
Track 10
Filename : /Volumes/Julian's Media/Music/Lossless Rips/World Saxophone Quartet - Metamorphosis (2006) [FLAC]/10 Feed The People (LP Version).flac
Pre-gap length : 00:02:03
Track gain : -0.86 dB
Peak : 0.898590
CRC32 hash (test run) : 3FFE4212
CRC32 hash : 3FFE4212
CRC32 hash (skip zero) : C55022CA
AccurateRip signature : 79F966A6
->Accurately ripped! (confidence 9)
Statistics
Read error : 0
Jitter error (maybe fixed) : 0
Retry sector count : 0
Damaged sector count : 0
No errors occurred
End of status report
 
Содержание индексной карты (.CUE)
TITLE "Metamorphosis"
PERFORMER "World Saxophone Quartet"
CATALOG 0075597925821
REM GENRE "Jazz"
REM DATE "1991"
REM DISCNUMBER 1
REM TOTALDISCS 1
REM DISCID 8F0E820A
REM REPLAYGAIN_ALBUM_GAIN -1.16 dB
REM REPLAYGAIN_ALBUM_PEAK 0.900055
FILE "01 The Holy Men.flac" WAVE
TRACK 01 AUDIO
TITLE "The Holy Men" REM REPLAYGAIN_TRACK_GAIN -1.40 dB
REM REPLAYGAIN_TRACK_PEAK 0.773376
PREGAP 00:00:32
INDEX 01 00:00:00
TRACK 02 AUDIO
TITLE "Lullaby" REM REPLAYGAIN_TRACK_GAIN 0.20 dB
REM REPLAYGAIN_TRACK_PEAK 0.803986
INDEX 00 02:48:48
FILE "02 Lullaby.flac" WAVE
INDEX 01 00:00:00
TRACK 03 AUDIO
TITLE "Metamorphosis" REM REPLAYGAIN_TRACK_GAIN -2.27 dB
REM REPLAYGAIN_TRACK_PEAK 0.848969
INDEX 00 04:51:73
FILE "03 Metamorphosis.flac" WAVE
INDEX 01 00:00:00
TRACK 04 AUDIO
TITLE "Su Mama Ah Zumu" REM REPLAYGAIN_TRACK_GAIN -0.76 dB
REM REPLAYGAIN_TRACK_PEAK 0.872070
INDEX 00 03:29:42
FILE "04 Su Mama Ah Zumu.flac" WAVE
INDEX 01 00:00:00
TRACK 05 AUDIO
TITLE "Africa" REM REPLAYGAIN_TRACK_GAIN -0.07 dB
REM REPLAYGAIN_TRACK_PEAK 0.900055
INDEX 00 06:25:55
FILE "05 Africa.flac" WAVE
INDEX 01 00:00:00
TRACK 06 AUDIO
TITLE "Ballad For The Black Man" REM REPLAYGAIN_TRACK_GAIN 0.32 dB
REM REPLAYGAIN_TRACK_PEAK 0.760132
INDEX 00 08:54:40
FILE "06 Ballad For The Black Man.flac" WAVE
INDEX 01 00:00:00
TRACK 07 AUDIO
TITLE "Masai Warriors Dance" REM REPLAYGAIN_TRACK_GAIN -1.62 dB
REM REPLAYGAIN_TRACK_PEAK 0.712494
INDEX 00 07:52:40
FILE "07 Masai Warriors Dance.flac" WAVE
INDEX 01 00:00:00
TRACK 08 AUDIO
TITLE "Love Like Sisters" REM REPLAYGAIN_TRACK_GAIN -1.49 dB
REM REPLAYGAIN_TRACK_PEAK 0.647125
INDEX 00 05:14:67
FILE "08 Love Like Sisters.flac" WAVE
INDEX 01 00:00:00
TRACK 09 AUDIO
TITLE "Lo Chi Lo" REM REPLAYGAIN_TRACK_GAIN -1.48 dB
REM REPLAYGAIN_TRACK_PEAK 0.764557
INDEX 00 04:07:25
FILE "09 Lo Chi Lo.flac" WAVE
INDEX 01 00:00:00
TRACK 10 AUDIO
TITLE "Feed The People" REM REPLAYGAIN_TRACK_GAIN -0.86 dB
REM REPLAYGAIN_TRACK_PEAK 0.898590
INDEX 00 06:58:00
FILE "10 Feed The People.flac" WAVE
INDEX 01 00:00:00
другие релизы
Any questions -> support@pro-jazz.com. По всем вопросам пишите -> support@pro-jazz.com
23:46
263
Нет комментариев. Ваш будет первым!