Вы используете незарегистрированную версию компонента "Вкладки"!

Поиск

(Free Jazz, Free Improvisation) Paul Dunmall & Paul Rogers - Folks History (2009) [4cd], FLAC (tracks+.cue), lossless

(Free Jazz, Free Improvisation) Paul Dunmall & Paul Rogers - Folks History (2009) [4cd], FLAC (tracks+.cue), lossless
Треклист:


Paul Dunmall & Paul Rogers - Folks History (2009) [4cd]

Жанр:Free Jazz, Free Improvisation
Год выпуска: 2009
Формат: FLAC (tracks+.cue)
Битрейт аудио: lossless
Продолжительность: 3`03`01
Источник: avaxhome
Double Bass [5 String] – Paul Rogers (2)
Soprano Saxophone, Clarinet [E Flat], Bagpipes, Flute – Paul Dunmall
Recorded at Unitarian Chapel, Warwick, United Kingdom, 1994-07-06 (Disc 1);
Bath Festival, Bath, United Kingdom, 1995-05 (Disc 2);
Unitarian Chapel, Warwick, United Kingdom, 1995-08-11 (Disc 3);
Paris, France, 1996-04 (Disc 4)
2009 DUNS – DLE 063


disc A
1-1. Hairy Fox 9:26
1-2. Lament 1 5:47
1-3. Ossie 6:13
1-4. Lament 4 8:19
1-5. Animals 6:47
1-6. Pyrennes 4:31
1-7. Two Dogs 2:24

 
.log
Exact Audio Copy V0.99 prebeta 5 from 4. May 2009
EAC extraction logfile from 7. November 2009, 14:29
Paul Dunmall - Paul Rogers / Folks History - CD A
Used drive : HL-DT-STDVDRAM GSA-E10L Adapter: 3 ID: 0
Read mode : Secure
Utilize accurate stream : Yes
Defeat audio cache : Yes
Make use of C2 pointers : No
Read offset correction : 667
Overread into Lead-In and Lead-Out : No
Fill up missing offset samples with silence : Yes
Delete leading and trailing silent blocks : No
Null samples used in CRC calculations : Yes
Used interface : Native Win32 interface for Win NT & 2000
Gap handling : Appended to previous track
Used output format : User Defined Encoder
Selected bitrate : 1024 kBit/s
Quality : High
Add ID3 tag : Yes
Command line compressor : C:\Program Files\Exact Audio Copy\Flac\flac.exe
Additional command line options : -8 -V -T "ARTIST=%a" -T "TITLE=%t" -T "ALBUM=%g" -T "DATE=%y" -T "TRACKNUMBER=%n" -T "TOTALTRACKS=%x" -T "GENRE=%m" -T "ALBUM ARTIST=%v" -T "ALBUMARTIST=%v" -T "COMMENT=EAC V0.99 prebeta 5, Secure Mode, Test & Copy, FLAC -8
TOC of the extracted CD
Track | Start | Length | Start sector | End sector
---------------------------------------------------------
1 | 0:00.00 | 9:31.23 | 0 | 42847
2 | 9:31.23 | 5:52.33 | 42848 | 69280
3 | 15:23.56 | 6:18.68 | 69281 | 97698
4 | 21:42.49 | 8:24.22 | 97699 | 135520
5 | 30:06.71 | 6:52.60 | 135521 | 166480
6 | 36:59.56 | 4:36.37 | 166481 | 187217
7 | 41:36.18 | 5:03.32 | 187218 | 209974
Track 1
Filename C:\Paul Dunmall.Paul Rogers - Folks History (2009)[Flac]{DUNS DLE063}{4CD SET}\CD A\01 - Hairy Fox.wav
Pre-gap length 0:00:02.00
Peak level 92.2 %
Track quality 100.0 %
Test CRC 0ED291E7
Copy CRC 0ED291E7
Copy OK
Track 2
Filename C:\Paul Dunmall.Paul Rogers - Folks History (2009)[Flac]{DUNS DLE063}{4CD SET}\CD A\02 - Lament 1.wav
Peak level 92.2 %
Track quality 100.0 %
Test CRC DAFD8E67
Copy CRC DAFD8E67
Copy OK
Track 3
Filename C:\Paul Dunmall.Paul Rogers - Folks History (2009)[Flac]{DUNS DLE063}{4CD SET}\CD A\03 - Ossie.wav
Peak level 92.2 %
Track quality 100.0 %
Test CRC 40FDC142
Copy CRC 40FDC142
Copy OK
Track 4
Filename C:\Paul Dunmall.Paul Rogers - Folks History (2009)[Flac]{DUNS DLE063}{4CD SET}\CD A\04 - Lament 4.wav
Peak level 92.2 %
Track quality 100.0 %
Test CRC 6E2E1E34
Copy CRC 6E2E1E34
Copy OK
Track 5
Filename C:\Paul Dunmall.Paul Rogers - Folks History (2009)[Flac]{DUNS DLE063}{4CD SET}\CD A\05 - Animals.wav
Peak level 92.2 %
Track quality 100.0 %
Test CRC B9140FF2
Copy CRC B9140FF2
Copy OK
Track 6
Filename C:\Paul Dunmall.Paul Rogers - Folks History (2009)[Flac]{DUNS DLE063}{4CD SET}\CD A\06 - Pyrennes.wav
Peak level 92.2 %
Track quality 100.0 %
Test CRC 1D9136F2
Copy CRC 1D9136F2
Copy OK
Track 7
Filename C:\Paul Dunmall.Paul Rogers - Folks History (2009)[Flac]{DUNS DLE063}{4CD SET}\CD A\07 - Two Dogs.wav
Peak level 92.2 %
Track quality 100.0 %
Test CRC 0A6677B1
Copy CRC 0A6677B1
Copy OK
No errors occurred
End of status report
 
.cue
REM GENRE "Free Improvisation"
REM DATE 2009
REM DISCID 580AEF07
REM COMMENT "ExactAudioCopy v0.99pb5"
PERFORMER "Paul Dunmall - Paul Rogers"
TITLE "Folks History - CD A"
FILE "01 - Hairy Fox.wav" WAVE
TRACK 01 AUDIO
TITLE "Hairy Fox"
PERFORMER "Paul Dunmall - Paul Rogers"
INDEX 01 00:00:00
FILE "02 - Lament 1.wav" WAVE
TRACK 02 AUDIO
TITLE "Lament 1"
PERFORMER "Paul Dunmall - Paul Rogers"
INDEX 01 00:00:00
FILE "03 - Ossie.wav" WAVE
TRACK 03 AUDIO
TITLE "Ossie"
PERFORMER "Paul Dunmall - Paul Rogers"
INDEX 01 00:00:00
FILE "04 - Lament 4.wav" WAVE
TRACK 04 AUDIO
TITLE "Lament 4"
PERFORMER "Paul Dunmall - Paul Rogers"
INDEX 01 00:00:00
FILE "05 - Animals.wav" WAVE
TRACK 05 AUDIO
TITLE "Animals"
PERFORMER "Paul Dunmall - Paul Rogers"
INDEX 01 00:00:00
FILE "06 - Pyrennes.wav" WAVE
TRACK 06 AUDIO
TITLE "Pyrennes"
PERFORMER "Paul Dunmall - Paul Rogers"
INDEX 01 00:00:00
FILE "07 - Two Dogs.wav" WAVE
TRACK 07 AUDIO
TITLE "Two Dogs"
PERFORMER "Paul Dunmall - Paul Rogers"
INDEX 01 00:00:00



disc B
2-1. Hairy Fox 12:06
2-2. Lament 1 5:53
2-3. Grass Snake 8:20
2-4. Talking About Folks 5:11
2-5. Two Dogs At Large 2:24

 
.log
Exact Audio Copy V0.99 prebeta 5 from 4. May 2009
EAC extraction logfile from 7. November 2009, 16:55
Paul Dunmall - Paul Rogers / Folks History - CD D
Used drive : HL-DT-STDVDRAM GSA-E10L Adapter: 3 ID: 0
Read mode : Secure
Utilize accurate stream : Yes
Defeat audio cache : Yes
Make use of C2 pointers : No
Read offset correction : 667
Overread into Lead-In and Lead-Out : No
Fill up missing offset samples with silence : Yes
Delete leading and trailing silent blocks : No
Null samples used in CRC calculations : Yes
Used interface : Native Win32 interface for Win NT & 2000
Gap handling : Appended to previous track
Used output format : User Defined Encoder
Selected bitrate : 1024 kBit/s
Quality : High
Add ID3 tag : Yes
Command line compressor : C:\Program Files\Exact Audio Copy\Flac\flac.exe
Additional command line options : -8 -V -T "ARTIST=%a" -T "TITLE=%t" -T "ALBUM=%g" -T "DATE=%y" -T "TRACKNUMBER=%n" -T "TOTALTRACKS=%x" -T "GENRE=%m" -T "ALBUM ARTIST=%v" -T "ALBUMARTIST=%v" -T "COMMENT=EAC V0.99 prebeta 5, Secure Mode, Test & Copy, FLAC -8
TOC of the extracted CD
Track | Start | Length | Start sector | End sector
---------------------------------------------------------
1 | 0:00.00 | 6:34.23 | 0 | 29572
2 | 6:34.23 | 9:03.17 | 29573 | 70314
3 | 15:37.40 | 7:16.74 | 70315 | 103088
4 | 22:54.39 | 3:55.02 | 103089 | 120715
5 | 26:49.41 | 4:48.08 | 120716 | 142323
6 | 31:37.49 | 7:19.03 | 142324 | 175251
7 | 38:56.52 | 8:47.43 | 175252 | 214819
8 | 47:44.20 | 6:00.01 | 214820 | 241820
Track 1
Filename C:\Paul Dunmall.Paul Rogers - Folks History (2009)[Flac]{DUNS DLE063}{4CD SET}\CD D\01 - Desire.wav
Pre-gap length 0:00:02.00
Peak level 94.4 %
Track quality 100.0 %
Test CRC 65A0A1E8
Copy CRC 65A0A1E8
Copy OK
Track 2
Filename C:\Paul Dunmall.Paul Rogers - Folks History (2009)[Flac]{DUNS DLE063}{4CD SET}\CD D\02 - Green Nuts - Ossie.wav
Peak level 94.4 %
Track quality 100.0 %
Test CRC 319518FA
Copy CRC 319518FA
Copy OK
Track 3
Filename C:\Paul Dunmall.Paul Rogers - Folks History (2009)[Flac]{DUNS DLE063}{4CD SET}\CD D\03 - Three For Louis.wav
Peak level 94.4 %
Track quality 99.9 %
Test CRC F0619D1D
Copy CRC F0619D1D
Copy OK
Track 4
Filename C:\Paul Dunmall.Paul Rogers - Folks History (2009)[Flac]{DUNS DLE063}{4CD SET}\CD D\04 - Saffron.wav
Peak level 94.4 %
Track quality 100.0 %
Test CRC A2543910
Copy CRC A2543910
Copy OK
Track 5
Filename C:\Paul Dunmall.Paul Rogers - Folks History (2009)[Flac]{DUNS DLE063}{4CD SET}\CD D\05 - Swimming Horse.wav
Peak level 94.4 %
Track quality 100.0 %
Test CRC 6B10C114
Copy CRC 6B10C114
Copy OK
Track 6
Filename C:\Paul Dunmall.Paul Rogers - Folks History (2009)[Flac]{DUNS DLE063}{4CD SET}\CD D\06 - Cats In The Pigeonhouse.wav
Peak level 94.4 %
Track quality 100.0 %
Test CRC B2DD53CB
Copy CRC B2DD53CB
Copy OK
Track 7
Filename C:\Paul Dunmall.Paul Rogers - Folks History (2009)[Flac]{DUNS DLE063}{4CD SET}\CD D\07 - No Hunting Or Fishing.wav
Peak level 94.4 %
Track quality 100.0 %
Test CRC 46A11DBB
Copy CRC 46A11DBB
Copy OK
Track 8
Filename C:\Paul Dunmall.Paul Rogers - Folks History (2009)[Flac]{DUNS DLE063}{4CD SET}\CD D\08 - Two Dogs Is Back At Pigeonhouse.wav
Peak level 94.4 %
Track quality 100.0 %
Test CRC D7FFF146
Copy CRC D7FFF146
Copy OK
No errors occurred
End of status report
 
.cue
REM GENRE "Free Improvisation"
REM DATE 2009
REM DISCID 840C9808
REM COMMENT "ExactAudioCopy v0.99pb5"
PERFORMER "Paul Dunmall - Paul Rogers"
TITLE "Folks History - CD D"
FILE "01 - Desire.wav" WAVE
TRACK 01 AUDIO
TITLE "Desire"
PERFORMER "Paul Dunmall - Paul Rogers"
INDEX 01 00:00:00
FILE "02 - Green Nuts - Ossie.wav" WAVE
TRACK 02 AUDIO
TITLE "Green Nuts - Ossie"
PERFORMER "Paul Dunmall - Paul Rogers"
INDEX 01 00:00:00
FILE "03 - Three For Louis.wav" WAVE
TRACK 03 AUDIO
TITLE "Three For Louis"
PERFORMER "Paul Dunmall - Paul Rogers"
INDEX 01 00:00:00
FILE "04 - Saffron.wav" WAVE
TRACK 04 AUDIO
TITLE "Saffron"
PERFORMER "Paul Dunmall - Paul Rogers"
INDEX 01 00:00:00
FILE "05 - Swimming Horse.wav" WAVE
TRACK 05 AUDIO
TITLE "Swimming Horse"
PERFORMER "Paul Dunmall - Paul Rogers"
INDEX 01 00:00:00
FILE "06 - Cats In The Pigeonhouse.wav" WAVE
TRACK 06 AUDIO
TITLE "Cats In The Pigeonhouse"
PERFORMER "Paul Dunmall - Paul Rogers"
INDEX 01 00:00:00
FILE "07 - No Hunting Or Fishing.wav" WAVE
TRACK 07 AUDIO
TITLE "No Hunting Or Fishing"
PERFORMER "Paul Dunmall - Paul Rogers"
INDEX 01 00:00:00
FILE "08 - Two Dogs Is Back At Pigeonhouse.wav" WAVE
TRACK 08 AUDIO
TITLE "Two Dogs Is Back At Pigeonhouse"
PERFORMER "Paul Dunmall - Paul Rogers"
INDEX 01 00:00:00



disc C
3-1. Hairy Fox 9:13
3-2. Lament 1 5:52
3-3. Grass Snake 7:36
3-4. Folks Talk 4:54
3-5. Three For Louis 9:51
3-6. Big Dogs 10:29

 
.log
Exact Audio Copy V0.99 prebeta 5 from 4. May 2009
EAC extraction logfile from 7. November 2009, 15:49
Paul Dunmall - Paul Rogers / Folks History - CD C
Used drive : HL-DT-STDVDRAM GSA-E10L Adapter: 3 ID: 0
Read mode : Secure
Utilize accurate stream : Yes
Defeat audio cache : Yes
Make use of C2 pointers : No
Read offset correction : 667
Overread into Lead-In and Lead-Out : No
Fill up missing offset samples with silence : Yes
Delete leading and trailing silent blocks : No
Null samples used in CRC calculations : Yes
Used interface : Native Win32 interface for Win NT & 2000
Gap handling : Appended to previous track
Used output format : User Defined Encoder
Selected bitrate : 1024 kBit/s
Quality : High
Add ID3 tag : Yes
Command line compressor : C:\Program Files\Exact Audio Copy\Flac\flac.exe
Additional command line options : -8 -V -T "ARTIST=%a" -T "TITLE=%t" -T "ALBUM=%g" -T "DATE=%y" -T "TRACKNUMBER=%n" -T "TOTALTRACKS=%x" -T "GENRE=%m" -T "ALBUM ARTIST=%v" -T "ALBUMARTIST=%v" -T "COMMENT=EAC V0.99 prebeta 5, Secure Mode, Test & Copy, FLAC -8
TOC of the extracted CD
Track | Start | Length | Start sector | End sector
---------------------------------------------------------
1 | 0:00.00 | 9:18.39 | 0 | 41888
2 | 9:18.39 | 5:57.29 | 41889 | 68692
3 | 15:15.68 | 7:41.23 | 68693 | 103290
4 | 22:57.16 | 4:59.07 | 103291 | 125722
5 | 27:56.23 | 9:56.09 | 125723 | 170431
6 | 37:52.32 | 10:29.32 | 170432 | 217638
Track 1
Filename C:\Paul Dunmall.Paul Rogers - Folks History (2009)[Flac]{DUNS DLE063}{4CD SET}\CD C\01 - Hairy Fox.wav
Pre-gap length 0:00:02.00
Peak level 94.4 %
Track quality 99.9 %
Test CRC 1C2891C9
Copy CRC 1C2891C9
Copy OK
Track 2
Filename C:\Paul Dunmall.Paul Rogers - Folks History (2009)[Flac]{DUNS DLE063}{4CD SET}\CD C\02 - Lament 1.wav
Peak level 94.4 %
Track quality 100.0 %
Test CRC 075C4019
Copy CRC 075C4019
Copy OK
Track 3
Filename C:\Paul Dunmall.Paul Rogers - Folks History (2009)[Flac]{DUNS DLE063}{4CD SET}\CD C\03 - Grass Snake.wav
Peak level 94.4 %
Track quality 100.0 %
Test CRC B2886BAA
Copy CRC B2886BAA
Copy OK
Track 4
Filename C:\Paul Dunmall.Paul Rogers - Folks History (2009)[Flac]{DUNS DLE063}{4CD SET}\CD C\04 - Folks Talk.wav
Peak level 94.4 %
Track quality 100.0 %
Test CRC 4F40941B
Copy CRC 4F40941B
Copy OK
Track 5
Filename C:\Paul Dunmall.Paul Rogers - Folks History (2009)[Flac]{DUNS DLE063}{4CD SET}\CD C\05 - Three For Louis.wav
Peak level 94.4 %
Track quality 100.0 %
Test CRC 455B62AB
Copy CRC 455B62AB
Copy OK
Track 6
Filename C:\Paul Dunmall.Paul Rogers - Folks History (2009)[Flac]{DUNS DLE063}{4CD SET}\CD C\06 - Big Dogs.wav
Peak level 94.4 %
Track quality 100.0 %
Test CRC B257CF63
Copy CRC B257CF63
Copy OK
No errors occurred
End of status report
 
.cue
REM GENRE "Free Improvisation"
REM DATE 2009
REM DISCID 570B5506
REM COMMENT "ExactAudioCopy v0.99pb5"
PERFORMER "Paul Dunmall - Paul Rogers"
TITLE "Folks History - CD C"
FILE "01 - Hairy Fox.wav" WAVE
TRACK 01 AUDIO
TITLE "Hairy Fox"
PERFORMER "Paul Dunmall - Paul Rogers"
INDEX 01 00:00:00
FILE "02 - Lament 1.wav" WAVE
TRACK 02 AUDIO
TITLE "Lament 1"
PERFORMER "Paul Dunmall - Paul Rogers"
INDEX 01 00:00:00
FILE "03 - Grass Snake.wav" WAVE
TRACK 03 AUDIO
TITLE "Grass Snake"
PERFORMER "Paul Dunmall - Paul Rogers"
INDEX 01 00:00:00
FILE "04 - Folks Talk.wav" WAVE
TRACK 04 AUDIO
TITLE "Folks Talk"
PERFORMER "Paul Dunmall - Paul Rogers"
INDEX 01 00:00:00
FILE "05 - Three For Louis.wav" WAVE
TRACK 05 AUDIO
TITLE "Three For Louis"
PERFORMER "Paul Dunmall - Paul Rogers"
INDEX 01 00:00:00
FILE "06 - Big Dogs.wav" WAVE
TRACK 06 AUDIO
TITLE "Big Dogs"
PERFORMER "Paul Dunmall - Paul Rogers"
INDEX 01 00:00:00



disc D
4-1. Desire 6:30
4-2. Green Nuts / Ossie 8:59
4-3. Three For Louis 7:12
4-4. Saffron 3:51
4-5. Swimming Horse 4:44
4-6. Cats In The Pigeonhouse 7:15
4-7. No Hunting Or Fishing 8:43
4-8. Two Dogs Is Back At Pigeonhouse 6:00

 
.log
Exact Audio Copy V0.99 prebeta 5 from 4. May 2009
EAC extraction logfile from 7. November 2009, 15:09
Paul Dunmall - Paul Rogers / Folks History - CD B
Used drive : HL-DT-STDVDRAM GSA-E10L Adapter: 3 ID: 0
Read mode : Secure
Utilize accurate stream : Yes
Defeat audio cache : Yes
Make use of C2 pointers : No
Read offset correction : 667
Overread into Lead-In and Lead-Out : No
Fill up missing offset samples with silence : Yes
Delete leading and trailing silent blocks : No
Null samples used in CRC calculations : Yes
Used interface : Native Win32 interface for Win NT & 2000
Gap handling : Appended to previous track
Used output format : User Defined Encoder
Selected bitrate : 1024 kBit/s
Quality : High
Add ID3 tag : Yes
Command line compressor : C:\Program Files\Exact Audio Copy\Flac\flac.exe
Additional command line options : -8 -V -T "ARTIST=%a" -T "TITLE=%t" -T "ALBUM=%g" -T "DATE=%y" -T "TRACKNUMBER=%n" -T "TOTALTRACKS=%x" -T "GENRE=%m" -T "ALBUM ARTIST=%v" -T "ALBUMARTIST=%v" -T "COMMENT=EAC V0.99 prebeta 5, Secure Mode, Test & Copy, FLAC -8
TOC of the extracted CD
Track | Start | Length | Start sector | End sector
---------------------------------------------------------
1 | 0:00.00 | 12:11.22 | 0 | 54846
2 | 12:11.22 | 5:58.04 | 54847 | 81700
3 | 18:09.26 | 8:25.00 | 81701 | 119575
4 | 26:34.26 | 5:16.43 | 119576 | 143318
5 | 31:50.69 | 2:24.37 | 143319 | 154155
Track 1
Filename C:\Paul Dunmall.Paul Rogers - Folks History (2009)[Flac]{DUNS DLE063}{4CD SET}\CD B\01 - Hairy Fox.wav
Pre-gap length 0:00:02.00
Peak level 85.8 %
Track quality 100.0 %
Test CRC 18AFD7F2
Copy CRC 18AFD7F2
Copy OK
Track 2
Filename C:\Paul Dunmall.Paul Rogers - Folks History (2009)[Flac]{DUNS DLE063}{4CD SET}\CD B\02 - Lament 1.wav
Peak level 81.2 %
Track quality 100.0 %
Test CRC 6B6FC4F8
Copy CRC 6B6FC4F8
Copy OK
Track 3
Filename C:\Paul Dunmall.Paul Rogers - Folks History (2009)[Flac]{DUNS DLE063}{4CD SET}\CD B\03 - Grass Snake.wav
Peak level 93.0 %
Track quality 100.0 %
Test CRC C929DD9E
Copy CRC C929DD9E
Copy OK
Track 4
Filename C:\Paul Dunmall.Paul Rogers - Folks History (2009)[Flac]{DUNS DLE063}{4CD SET}\CD B\04 - Talking About Folks.wav
Peak level 80.8 %
Track quality 100.0 %
Test CRC 8EF45796
Copy CRC 8EF45796
Copy OK
Track 5
Filename C:\Paul Dunmall.Paul Rogers - Folks History (2009)[Flac]{DUNS DLE063}{4CD SET}\CD B\05 - Two Dogs At Large.wav
Peak level 84.5 %
Track quality 99.9 %
Test CRC D1FD2EAF
Copy CRC D1FD2EAF
Copy OK
No errors occurred
End of status report
 
.cue
REM GENRE "Free Improvisation"
REM DATE 2009
REM DISCID 3C080705
REM COMMENT "ExactAudioCopy v0.99pb5"
PERFORMER "Paul Dunmall - Paul Rogers"
TITLE "Folks History - CD B"
FILE "01 - Hairy Fox.wav" WAVE
TRACK 01 AUDIO
TITLE "Hairy Fox"
PERFORMER "Paul Dunmall - Paul Rogers"
INDEX 01 00:00:00
FILE "02 - Lament 1.wav" WAVE
TRACK 02 AUDIO
TITLE "Lament 1"
PERFORMER "Paul Dunmall - Paul Rogers"
INDEX 01 00:00:00
FILE "03 - Grass Snake.wav" WAVE
TRACK 03 AUDIO
TITLE "Grass Snake"
PERFORMER "Paul Dunmall - Paul Rogers"
INDEX 01 00:00:00
FILE "04 - Talking About Folks.wav" WAVE
TRACK 04 AUDIO
TITLE "Talking About Folks"
PERFORMER "Paul Dunmall - Paul Rogers"
INDEX 01 00:00:00
FILE "05 - Two Dogs At Large.wav" WAVE
TRACK 05 AUDIO
TITLE "Two Dogs At Large"
PERFORMER "Paul Dunmall - Paul Rogers"
INDEX 01 00:00:00

discogs
другие релизы
Any questions -> support@pro-jazz.com. По всем вопросам пишите -> support@pro-jazz.com
23:45
201
Нет комментариев. Ваш будет первым!