Вы используете незарегистрированную версию компонента "Вкладки"!

Поиск

(Free Jazz) William Parker / In Order To Survive - Compassion Seizes Bed-Stuy - 1996, FLAC (tracks+.cue) lossless

Треклист:
William Parker / In Order To Survive / Compassion Seizes Bed-Stuy
Жанр: Free Jazz
Страна-производитель диска: USA
Год издания диска: 1996
Издатель (лейбл): Homestead Records
Номер по каталогу: HMS231-2
Аудио кодек: FLAC (*.flac)
Тип рипа: tracks+.cue
Битрейт аудио: lossless
Продолжительность: 01:09:33
Источник (релизер): dmd
Наличие сканов в содержимом раздачи: нет
Треклист:
1.Compassion [10:38]
2.Malcolm's Smile [9:44]
3.For Robeson [5:41]
4.Holiday For Hypocrites [8:10]
5.Testimony Of The Last Flower [0:37]
6.Dejenos En Paz [8:05]
7.Unrestricted (For Julius Hemphill) [5:42]
8.Goggles [10:53]
9.The Eye Of The Window [9:59]
 
Лог создания рипа
Exact Audio Copy V0.99 prebeta 5 from 4. May 2009
EAC extraction logfile from 31. March 2011, 22:38
William Parker In Order To Survive / Compassion Seizes Bed-Stuy
Used drive : PIONEER DVD-RW DVR-115D Adapter: 0 ID: 0
Read mode : Secure
Utilize accurate stream : Yes
Defeat audio cache : Yes
Make use of C2 pointers : No
Read offset correction : 48
Overread into Lead-In and Lead-Out : No
Fill up missing offset samples with silence : Yes
Delete leading and trailing silent blocks : No
Null samples used in CRC calculations : Yes
Used interface : Installed external ASPI interface
Gap handling : Appended to previous track
Used output format : User Defined Encoder
Selected bitrate : 768 kBit/s
Quality : High
Add ID3 tag : No
Command line compressor : C:\Program Files\Exact Audio Copy\Flac\flac.exe
Additional command line options : -8 -V %s
TOC of the extracted CD
Track | Start | Length | Start sector | End sector
---------------------------------------------------------
1 | 0:00.00 | 10:41.42 | 0 | 48116
2 | 10:41.42 | 9:43.18 | 48117 | 91859
3 | 20:24.60 | 5:40.40 | 91860 | 117399
4 | 26:05.25 | 8:09.67 | 117400 | 154141
5 | 34:15.17 | 0:36.58 | 154142 | 156899
6 | 34:52.00 | 8:04.34 | 156900 | 193233
7 | 42:56.34 | 5:42.33 | 193234 | 218916
8 | 48:38.67 | 10:53.38 | 218917 | 267929
9 | 59:32.30 | 9:59.55 | 267930 | 312909
Track 1
Filename D:\dvdlabtemp\01. Compassion.wav
Pre-gap length 0:00:02.00
Peak level 100.0 %
Track quality 99.9 %
Test CRC 0DDBDFB8
Copy CRC 0DDBDFB8
Accurately ripped (confidence 2) [66F18D80]
Copy OK
Track 2
Filename D:\dvdlabtemp\02. Malcolm's Smile.wav
Pre-gap length 0:00:01.19
Peak level 100.0 %
Track quality 100.0 %
Test CRC 009056FC
Copy CRC 009056FC
Accurately ripped (confidence 2) [7F2434A6]
Copy OK
Track 3
Filename D:\dvdlabtemp\03. For Robeson.wav
Pre-gap length 0:00:00.02
Peak level 100.0 %
Track quality 99.9 %
Test CRC BB9A34AE
Copy CRC BB9A34AE
Accurately ripped (confidence 2) [8B942F7E]
Copy OK
Track 4
Filename D:\dvdlabtemp\04. Holiday For Hypocrites.wav
Pre-gap length 0:00:02.37
Peak level 100.0 %
Track quality 100.0 %
Test CRC 1FD95955
Copy CRC 1FD95955
Accurately ripped (confidence 2) [C502E43C]
Copy OK
Track 5
Filename D:\dvdlabtemp\05. Testimony Of The Last Flower.wav
Pre-gap length 0:00:03.04
Peak level 58.7 %
Track quality 100.0 %
Test CRC 229A019D
Copy CRC 229A019D
Accurately ripped (confidence 2) [16ACDAE2]
Copy OK
Track 6
Filename D:\dvdlabtemp\06. Dejenos En Paz.wav
Pre-gap length 0:00:02.00
Peak level 100.0 %
Track quality 99.9 %
Test CRC 057DA871
Copy CRC F59B76F0
Cannot be verified as accurate (confidence 2) [56325F0A], AccurateRip returned [CE28BD0C]
Copy OK
Track 7
Filename D:\dvdlabtemp\07. Unrestricted (For Julius Hemphill).wav
Pre-gap length 0:00:01.23
Peak level 100.0 %
Track quality 100.0 %
Test CRC B1B48E89
Copy CRC B1B48E89
Accurately ripped (confidence 2) [14388293]
Copy OK
Track 8
Filename D:\dvdlabtemp\08. Goggles.wav
Pre-gap length 0:00:01.24
Peak level 100.0 %
Track quality 99.9 %
Test CRC B603AC1E
Copy CRC B603AC1E
Accurately ripped (confidence 2) [D0C549EB]
Copy OK
Track 9
Filename D:\dvdlabtemp\09. The Eye Of The Window.wav
Pre-gap length 0:00:02.47
Peak level 100.0 %
Track quality 99.9 %
Test CRC 81F68FD3
Copy CRC 81F68FD3
Accurately ripped (confidence 2) [82722AD8]
Copy OK
8 track(s) accurately ripped
1 track(s) could not be verified as accurate
Some tracks could not be verified as accurate
No errors occurred
End of status report
 
Содержание индексной карты (.CUE)
REM DATE 1996
REM DISCID 80104C09
REM COMMENT "ExactAudioCopy v0.99pb5"
PERFORMER "William Parker In Order To Survive"
TITLE "Compassion Seizes Bed-Stuy"
FILE "01. Compassion.wav" WAVE
TRACK 01 AUDIO
TITLE "Compassion"
PERFORMER "William Parker In Order To Survive"
INDEX 01 00:00:00
TRACK 02 AUDIO
TITLE "Malcolm's Smile"
PERFORMER "William Parker In Order To Survive"
INDEX 00 10:40:23
FILE "02. Malcolm's Smile.wav" WAVE
INDEX 01 00:00:00
TRACK 03 AUDIO
TITLE "For Robeson"
PERFORMER "William Parker In Order To Survive"
INDEX 00 09:43:16
FILE "03. For Robeson.wav" WAVE
INDEX 01 00:00:00
TRACK 04 AUDIO
TITLE "Holiday For Hypocrites"
PERFORMER "William Parker In Order To Survive"
INDEX 00 05:38:03
FILE "04. Holiday For Hypocrites.wav" WAVE
INDEX 01 00:00:00
TRACK 05 AUDIO
TITLE "Testimony Of The Last Flower"
PERFORMER "William Parker In Order To Survive"
INDEX 00 08:06:63
FILE "05. Testimony Of The Last Flower.wav" WAVE
INDEX 01 00:00:00
TRACK 06 AUDIO
TITLE "Dejenos En Paz"
PERFORMER "William Parker In Order To Survive"
INDEX 00 00:34:58
FILE "06. Dejenos En Paz.wav" WAVE
INDEX 01 00:00:00
TRACK 07 AUDIO
TITLE "Unrestricted (For Julius Hemphill)"
PERFORMER "William Parker In Order To Survive"
INDEX 00 08:03:11
FILE "07. Unrestricted (For Julius Hemphill).wav" WAVE
INDEX 01 00:00:00
TRACK 08 AUDIO
TITLE "Goggles"
PERFORMER "William Parker In Order To Survive"
INDEX 00 05:41:09
FILE "08. Goggles.wav" WAVE
INDEX 01 00:00:00
TRACK 09 AUDIO
TITLE "The Eye Of The Window"
PERFORMER "William Parker In Order To Survive"
INDEX 00 10:50:66
FILE "09. The Eye Of The Window.wav" WAVE
INDEX 01 00:00:00
По всем вопросам пишите личное сообщение пользователю M0p94ok.
11:57
158
Нет комментариев. Ваш будет первым!