Вы используете незарегистрированную версию компонента "Вкладки"!

Поиск

(Free Jazz) William Parker & The Little Huey Creative Music Orchestra - Sunrise in the Tone World (2cd) - 1997, FLAC (tracks+.cue), lossless

Треклист:
William Parker & The Little Huey Creative Music Orchestra
Sunrise in the Tone World
Жанр: Free Jazz
Год выпуска диска: 1997
Производитель диска: Aum Fidelity (AUM002/3)
Источник: вот.сиди (balth67)
Аудио кодек: FLAC
Тип рипа: tracks+.cue
Битрейт аудио: lossless
Продолжительность: 2:02:07
Трэклист:
DISC 1
1. Sunrise in the Tone World 12:14
2. The Bluest J 26:05
3. Voice Dancer Kidd 7:44
4. Mayan Space Station 14:10
DISC 2
5. Huey Sees Light Through a Leaf 40:10
6. Sunship for Dexter 9:55
7. And Again 5:40
8. The Painter and the Poet 5:43
All compositions by William Parker
Recorded by Alen Hadzi Stefanov at the Knitting Factory Jan 15 (8), Jan 29 (2,3), Feb 19 (1,4,6,7), Feb 26 (5) 1995
 
Музыканты
William Parker: Leader, Bass
Trumpets
Roy Campbell (+ Pocket Trumpet, Flugelhorn)
Lewis Barnes
Richard Rodriguez
Trombones
Alex Lodico
Masahiko Kono
Steve Swell
Soprano Saxophones
Chris Jonas
Darryl Foster
Alto Saxophones
Rob Brown
Will Connell (+ Bass Clarinet, Flute)
Marco Eneidi
Mabo Suzuki
Tenor Saxophones
Richard Keene ( + Oboe)
Assif Tsahar
Ben Koen
Baritone Saxophones
Dave Sewelson
Joe Ruddick
Greg Bendian: Vibes
Cooper-Moore: Piano
Akira Ando: Cello
Hal Onserud: Bass
Dave Hofstra: Tuba
Susie Ibarra: Drums
Special Guests
Lisa Sokolov: Voice
Vinny Golia: Reeds
Jason Hwang: Violin
John King: Dobro
 
Отчёт EAC
 
I
EAC extraction logfile from 19. June 2008, 9:03 for CD
William Parker and The Little Huey Creative Music Orchestra / Sunrise in the Tone World (Disc 1)
Used drive : SONY DVD-ROM DDU1615 Adapter: 0 ID: 0
Read mode : Secure with NO C2, accurate stream, disable cache
Read offset correction : 6
Overread into Lead-In and Lead-Out : No
Used output format : C:\Program Files\FLAC\flac.exe (User Defined Encoder)
128 kBit/s
Additional command line options : -V -8 -T "artist=%a" -T "title=%t" -T "album=%g" -T "date=%y" -T "tracknumber=%n" -T "genre=%m" %s
Other options :
Fill up missing offset samples with silence : Yes
Delete leading and trailing silent blocks : No
Installed external ASPI interface
Track 1
Filename D:\DOWNLOADS\__UPLOADS\William Parker and The Little Huey Creative Music Orchestra - Sunrise in the Tone World (Disc 1) (1997) [FLAC]\01 - Sunrise In The Tone World.wav
Pre-gap length 0:00:02.00
Peak level 92.2 %
Track quality 99.9 %
Test CRC F83F00BE
Copy CRC F83F00BE
Copy OK
Track 2
Filename D:\DOWNLOADS\__UPLOADS\William Parker and The Little Huey Creative Music Orchestra - Sunrise in the Tone World (Disc 1) (1997) [FLAC]\02 - The Bluest J.wav
Peak level 85.7 %
Track quality 99.9 %
Test CRC AB1F0CD1
Copy CRC AB1F0CD1
Copy OK
Track 3
Filename D:\DOWNLOADS\__UPLOADS\William Parker and The Little Huey Creative Music Orchestra - Sunrise in the Tone World (Disc 1) (1997) [FLAC]\03 - Voice Dance Kidd.wav
Peak level 83.4 %
Track quality 99.9 %
Test CRC 88D29C73
Copy CRC 88D29C73
Copy OK
Track 4
Filename D:\DOWNLOADS\__UPLOADS\William Parker and The Little Huey Creative Music Orchestra - Sunrise in the Tone World (Disc 1) (1997) [FLAC]\04 - Mayan Space Station.wav
Peak level 81.6 %
Track quality 99.8 %
Test CRC D53594B6
Copy CRC D53594B6
Copy OK
No errors occured
End of status report
 
II
EAC extraction logfile from 19. June 2008, 10:58 for CD
William Parker and The Little Huey Creative Music Orchestra / Sunrise in the Tone World (Disc 2)
Used drive : SONY DVD-ROM DDU1615 Adapter: 0 ID: 0
Read mode : Secure with NO C2, accurate stream, disable cache
Read offset correction : 6
Overread into Lead-In and Lead-Out : No
Used output format : C:\Program Files\FLAC\flac.exe (User Defined Encoder)
128 kBit/s
Additional command line options : -V -8 -T "artist=%a" -T "title=%t" -T "album=%g" -T "date=%y" -T "tracknumber=%n" -T "genre=%m" %s
Other options :
Fill up missing offset samples with silence : Yes
Delete leading and trailing silent blocks : No
Installed external ASPI interface
Track 1
Filename D:\DOWNLOADS\__UPLOADS\William Parker and The Little Huey Creative Music Orchestra - Sunrise in the Tone World (Disc 2) (1997) [FLAC]\01 - Huey Sees Light through a Leaf.wav
Pre-gap length 0:00:02.00
Peak level 59.4 %
Track quality 99.9 %
Test CRC FCF8D7E1
Copy CRC FCF8D7E1
Copy OK
Track 2
Filename D:\DOWNLOADS\__UPLOADS\William Parker and The Little Huey Creative Music Orchestra - Sunrise in the Tone World (Disc 2) (1997) [FLAC]\02 - Sunship for Dexter.wav
Peak level 73.6 %
Track quality 99.8 %
Test CRC CBA4D79E
Copy CRC CBA4D79E
Copy OK
Track 3
Filename D:\DOWNLOADS\__UPLOADS\William Parker and The Little Huey Creative Music Orchestra - Sunrise in the Tone World (Disc 2) (1997) [FLAC]\03 - And Again.wav
Peak level 69.5 %
Track quality 99.8 %
Test CRC 7174BF4E
Copy CRC 7174BF4E
Copy OK
Track 4
Filename D:\DOWNLOADS\__UPLOADS\William Parker and The Little Huey Creative Music Orchestra - Sunrise in the Tone World (Disc 2) (1997) [FLAC]\04 - The Painter and the Poet (feat M. Eneidi and G. Bendian).wav
Peak level 59.8 %
Track quality 99.8 %
Test CRC 1FD20974
Copy CRC 1FD20974
Copy OK
No errors occured
End of status report
 
cue
 
I
REM GENRE "Free Jazz"
REM DATE 1997
REM DISCID 2C0E2504
REM COMMENT "ExactAudioCopy v0.95b3"
PERFORMER "William Parker and The Little Huey Creative Music Orchestra"
TITLE "Sunrise in the Tone World (Disc 1)"
FILE "01 - Sunrise In The Tone World.wav" WAVE
TRACK 01 AUDIO
TITLE "Sunrise In The Tone World"
PERFORMER "William Parker and The Little Huey Creative Music Orchestra"
INDEX 01 00:00:00
FILE "02 - The Bluest J.wav" WAVE
TRACK 02 AUDIO
TITLE "The Bluest J"
PERFORMER "William Parker and The Little Huey Creative Music Orchestra"
INDEX 01 00:00:00
FILE "03 - Voice Dance Kidd.wav" WAVE
TRACK 03 AUDIO
TITLE "Voice Dance Kidd"
PERFORMER "William Parker and The Little Huey Creative Music Orchestra"
INDEX 01 00:00:00
FILE "04 - Mayan Space Station.wav" WAVE
TRACK 04 AUDIO
TITLE "Mayan Space Station"
PERFORMER "William Parker and The Little Huey Creative Music Orchestra"
INDEX 01 00:00:00
 
II
REM GENRE "Free Jazz"
REM DATE 1997
REM DISCID 270E7904
REM COMMENT "ExactAudioCopy v0.95b3"
PERFORMER "William Parker and The Little Huey Creative Music Orchestra"
TITLE "Sunrise in the Tone World (Disc 2)"
FILE "01 - Huey Sees Light through a Leaf.wav" WAVE
TRACK 01 AUDIO
TITLE "Huey Sees Light through a Leaf"
PERFORMER "William Parker and The Little Huey Creative Music Orchestra"
INDEX 01 00:00:00
FILE "02 - Sunship for Dexter.wav" WAVE
TRACK 02 AUDIO
TITLE "Sunship for Dexter"
PERFORMER "William Parker and The Little Huey Creative Music Orchestra"
INDEX 01 00:00:00
FILE "03 - And Again.wav" WAVE
TRACK 03 AUDIO
TITLE "And Again"
PERFORMER "William Parker and The Little Huey Creative Music Orchestra"
INDEX 01 00:00:00
FILE "04 - The Painter and the Poet (feat M. Eneidi and G. Bendian).wav" WAVE
TRACK 04 AUDIO
TITLE "The Painter and the Poet (feat M. Eneidi and G. Bendian)"
PERFORMER "William Parker and The Little Huey Creative Music Orchestra"
INDEX 01 00:00:00
 
Отчёт Audiocheckera
AUDIOCHECKER v1.2 - by Dester - opdester@freemail.hu
~~~~~~~~~~~~~~~~~
1 -===- H:\Песеньки\lossless\william parker\william parker and the little huey creative music orchestra\sunrise in the tone world 1997\Disc 1\01 - Sunrise In The Tone World.flac
Extracted successfully
Conclusion: This track looks like CDDA with probability 100%
2 -===- H:\Песеньки\lossless\william parker\william parker and the little huey creative music orchestra\sunrise in the tone world 1997\Disc 1\02 - The Bluest J.flac
Extracted successfully
Conclusion: This track looks like CDDA with probability 100%
3 -===- H:\Песеньки\lossless\william parker\william parker and the little huey creative music orchestra\sunrise in the tone world 1997\Disc 1\03 - Voice Dance Kidd.flac
Extracted successfully
Conclusion: This track looks like CDDA with probability 100%
4 -===- H:\Песеньки\lossless\william parker\william parker and the little huey creative music orchestra\sunrise in the tone world 1997\Disc 1\04 - Mayan Space Station.flac
Extracted successfully
Conclusion: This track looks like CDDA with probability 100%
5 -===- H:\Песеньки\lossless\william parker\william parker and the little huey creative music orchestra\sunrise in the tone world 1997\Disc 2\01 - Huey Sees Light through a Leaf.flac
Extracted successfully
Conclusion: This track looks like CDDA with probability 100%
6 -===- H:\Песеньки\lossless\william parker\william parker and the little huey creative music orchestra\sunrise in the tone world 1997\Disc 2\02 - Sunship for Dexter.flac
Extracted successfully
Conclusion: This track looks like CDDA with probability 100%
7 -===- H:\Песеньки\lossless\william parker\william parker and the little huey creative music orchestra\sunrise in the tone world 1997\Disc 2\03 - And Again.flac
Extracted successfully
Conclusion: This track looks like CDDA with probability 100%
Any questions -> support@pro-jazz.com. По всем вопросам пишите -> support@pro-jazz.com
20:01
145
Нет комментариев. Ваш будет первым!