Вы используете незарегистрированную версию компонента "Вкладки"!

Поиск

(Free Improvisation, Avant-Garde) Lauren Newton, Joelle Leandre - Face It! - 2005, APE (image+.cue), lossless

(Free Improvisation, Avant-Garde) Lauren Newton, Joelle Leandre - Face It! - 2005, APE (image+.cue), lossless
Треклист:
Lauren Newton, Joelle Leandre - Face It!
Жанр: Free Improvisation, Avant-Garde
Год выпуска диска: 2005
Производитель диска: leo records LR 450
Аудио кодек: APE
Тип рипа: image+.cue
Битрейт аудио: lossless
Продолжительность: 46:26
Трэклист:
1.Face it 1 (6:11)
2. Face it 2 (4:56)
3. Face it 3 (4:38)
4. Face it 4 (3:15)
5. Face it 5 (5:10)
6. Face it 6 (4:10)
7. Face it 7 (6:43)
8. Face it 8 (5:14)
9. Face it 9 (5:30)
10. Untitled (0:29)
Joëlle Léandre — vocals, bass guitar
Lauren Newton – vocals
Recorded live at the Europa Jazz Festival in Le Mans in April, 2005, this is the second CD by the duo of Lauren Newton and Joelle Leandre in Leo Records catalogue
Доп. информация:
 
скрытый текст
Lauren Newton: "I am always intrigued with our work together as we continuously challenge each other to go deeper into ourselves, directly into the music of the moment." Joelle Leandre: "Making music with Lauren has always been and remains to be moments of pure joy and fun. The energy level is intense and inspires new musical horizons."
 
Log EAC
Exact Audio Copy V0.99 prebeta 4 from 23. January 2008
Estrazione File Di Log EAC Del 12. Marzo 2010, 15:19
Artista Sconosciuto / Titolo Sconosciuto
Unitа Predefinita: ATAPI DVD A DH16A1L Adapter: 1 ID: 0
Modalitа Di Lettura: : Sicura
Utilizza Lettura Accurata : Sм
Disattiva Cache Audio : No
Rileva Errori Lettura C2 : No
Correzione Offset Di Lettura: : 6
Sovrascrivi Anche Nel Lead-In E Lead-Out : No
Riempi Sample Offset Mancanti Con Silenzio : Sм
Rimuovi Blocchi Di Silenzio Ad Inizio E Fine Traccia : No
Usa I Sample Nulli Nel Calcolo CRC : Sм
Interfaccia Usata : Interfaccia Nativa Win32 Per Windows NT & 2000
Formato Di Destinazione Scelto: : Routine Interne WAV
Formato Sample : 44.100 Hz; 16 Bit; Stereo
TOC Del CD Estratto
Traccia | Inizio | Lunghezza | Inizio Settore | Fine Settore
----------------------------------------------------------------
1 | 0:00.00 | 6:11.57 | 0 | 27881
2 | 6:11.57 | 4:57.15 | 27882 | 50171
3 | 11:08.72 | 4:39.03 | 50172 | 71099
4 | 15:48.00 | 3:16.30 | 71100 | 85829
5 | 19:04.30 | 5:10.41 | 85830 | 109120
6 | 24:14.71 | 4:10.65 | 109121 | 127935
7 | 28:25.61 | 6:44.20 | 127936 | 158255
8 | 35:10.06 | 5:15.26 | 158256 | 181906
9 | 40:25.32 | 5:30.53 | 181907 | 206709
10 | 45:56.10 | 0:30.07 | 206710 | 208966
Stato Intervallo Ed Errori
Intervallo Selezionato
Nome File C:\avaxhome\Lauren Newton - Joelle Leandre - Face it!.wav
Livello Di Picco 96.6 %
Qualitа Intervallo 100.0 %
Copia CRC 519E3F35
Copia Corretta
Non Sono Stati Riscontrati Errori
Sommario Accuraterip
Traccia 1 Non Presente Nel Database
Traccia 2 Non Presente Nel Database
Traccia 3 Non Presente Nel Database
Traccia 4 Non Presente Nel Database
Traccia 5 Non Presente Nel Database
Traccia 6 Non Presente Nel Database
Traccia 7 Non Presente Nel Database
Traccia 8 Non Presente Nel Database
Traccia 9 Non Presente Nel Database
Traccia 10 Non Presente Nel Database
Nessuna Delle Tracce и Presente Nel Database AccurateRip
Fine Del Resoconto Di Stato
Any questions -> support@pro-jazz.com. По всем вопросам пишите -> support@pro-jazz.com
20:02
134
Нет комментариев. Ваш будет первым!