Вы используете незарегистрированную версию компонента "Вкладки"!

Поиск

(Free Jazz, Tzadik) Milford Graves - Stories - 1990, FLAC (tracks+.cue), lossless

Треклист:
Milford Graves - Stories
Жанр: Free Jazz
Год выпуска диска: 2000
Производитель диска: Tzadik (7062)
Источник: вот.сиди (Naunaud)
Аудио кодек: FLAC
Тип рипа: tracks+.cue
Битрейт аудио: lossless
Продолжительность: 1:01:48
Треклист:
1 Optical Inversions 5:15
2 Speaking To The Spoken 6:34
3 Changeable Changes 7:44
4 Territorial Moods 3:39
5 Continuous Conversations 6:35
6 Evolving Pathways 31:56
Recorded on June 25, 2000 at Avatar Studio, NYC
Milford Graves drums, percussion
 
Отчёт EAC
Exact Audio Copy V0.99 prebeta 5 from 4. May 2009
EAC extraction logfile from 17. July 2010, 20:44
Milford Graves / Stories
Used drive : PIONEER DVD-RW DVR-111D Adapter: 3 ID: 0
Read mode : Secure
Utilize accurate stream : Yes
Defeat audio cache : Yes
Make use of C2 pointers : No
Read offset correction : 48
Overread into Lead-In and Lead-Out : No
Fill up missing offset samples with silence : Yes
Delete leading and trailing silent blocks : No
Null samples used in CRC calculations : Yes
Used interface : Native Win32 interface for Win NT & 2000
Gap handling : Appended to previous track
Used output format : User Defined Encoder
Selected bitrate : 128 kBit/s
Quality : High
Add ID3 tag : No
Command line compressor : F:\Program Files\Exact Audio Copy\Flac\flac.exe
Additional command line options : -V -8 -T "artist=%a" -T "title=%t" -T "album=%g" -T "date=%y" -T "tracknumber=%n" -T "genre=%m" %s
TOC of the extracted CD
Track | Start | Length | Start sector | End sector
---------------------------------------------------------
1 | 0:00.00 | 5:16.55 | 0 | 23754
2 | 5:16.55 | 6:34.60 | 23755 | 53364
3 | 11:51.40 | 7:44.60 | 53365 | 88224
4 | 19:36.25 | 3:39.12 | 88225 | 104661
5 | 23:15.37 | 6:35.38 | 104662 | 134324
6 | 29:51.00 | 31:57.15 | 134325 | 278114
Track 1
Filename H:\MP3\Milford Graves - 2000 - Stories [FLAC]\01 - Optical Inversions.wav
Pre-gap length 0:00:02.00
Peak level 98.4 %
Track quality 100.0 %
Test CRC 4D854D6D
Copy CRC 4D854D6D
Cannot be verified as accurate (confidence 2) [1F497C7D], AccurateRip returned [0DB7385D]
Copy OK
Track 2
Filename H:\MP3\Milford Graves - 2000 - Stories [FLAC]\02 - Speaking To The Spoken.wav
Pre-gap length 0:00:00.01
Peak level 98.7 %
Track quality 99.9 %
Test CRC 1E1D4844
Copy CRC 1E1D4844
Cannot be verified as accurate (confidence 2) [60ADFA79], AccurateRip returned [5A630DC3]
Copy OK
Track 3
Filename H:\MP3\Milford Graves - 2000 - Stories [FLAC]\03 - Changeable Changes.wav
Peak level 98.6 %
Track quality 100.0 %
Test CRC 57BC8BEF
Copy CRC 57BC8BEF
Cannot be verified as accurate (confidence 2) [2B5A2081], AccurateRip returned [F2147A7F]
Copy OK
Track 4
Filename H:\MP3\Milford Graves - 2000 - Stories [FLAC]\04 - Territorial Moods.wav
Peak level 98.6 %
Track quality 99.9 %
Test CRC 7BDF86E6
Copy CRC 7BDF86E6
Cannot be verified as accurate (confidence 2) [2142547D], AccurateRip returned [BFA0FD95]
Copy OK
Track 5
Filename H:\MP3\Milford Graves - 2000 - Stories [FLAC]\05 - Continuous Conversations.wav
Peak level 96.1 %
Track quality 99.9 %
Test CRC 0AE17A5D
Copy CRC 0AE17A5D
Cannot be verified as accurate (confidence 2) [949190CD], AccurateRip returned [14A2B19D]
Copy OK
Track 6
Filename H:\MP3\Milford Graves - 2000 - Stories [FLAC]\06 - Evolving Pathways.wav
Peak level 98.9 %
Track quality 100.0 %
Test CRC 69B697DE
Copy CRC 69B697DE
Cannot be verified as accurate (confidence 2) [8F7014EB], AccurateRip returned [04E406F3]
Copy OK
No tracks could be verified as accurate
You may have a different pressing from the one(s) in the database
No errors occurred
End of status report
 
Отчёт Audiocheckera
AUDIOCHECKER v2.0 beta (build 457) - by Dester - opdester@freemail.hu
~~~~~~~~~~~~~~~~~~~~~~~~~~~~~~~~~~
-=== DO NOT EDIT THIS FILE! ===-
Path: ...\Milford Graves - 2000 - Stories [FLAC]
1 -=- 01 - Optical Inversions.flac -=- CDDA (100%)
2 -=- 02 - Speaking To The Spoken.flac -=- CDDA (100%)
3 -=- 03 - Changeable Changes.flac -=- CDDA (100%)
4 -=- 04 - Territorial Moods.flac -=- CDDA (100%)
5 -=- 05 - Continuous Conversations.flac -=- CDDA (100%)
6 -=- 06 - Evolving Pathways.flac -=- CDDA (100%)
Summary 100,00% CDDA
212589924
 
cue
REM GENRE Jazz
REM DATE 2000
REM DISCID 520E7C06
REM COMMENT "ExactAudioCopy v0.99pb5"
FILE "01 - Optical Inversions.wav" WAVE
TRACK 01 AUDIO
FLAGS DCP
INDEX 01 00:00:00
TRACK 02 AUDIO
FLAGS DCP
INDEX 00 05:16:54
FILE "02 - Speaking To The Spoken.wav" WAVE
INDEX 01 00:00:00
FILE "03 - Changeable Changes.wav" WAVE
TRACK 03 AUDIO
FLAGS DCP
INDEX 01 00:00:00
FILE "04 - Territorial Moods.wav" WAVE
TRACK 04 AUDIO
FLAGS DCP
INDEX 01 00:00:00
FILE "05 - Continuous Conversations.wav" WAVE
TRACK 05 AUDIO
FLAGS DCP
INDEX 01 00:00:00
FILE "06 - Evolving Pathways.wav" WAVE
TRACK 06 AUDIO
FLAGS DCP
INDEX 01 00:00:00
По всем вопросам пишите личное сообщение пользователю M0p94ok.
01:47
218
Нет комментариев. Ваш будет первым!