Вы используете незарегистрированную версию компонента "Вкладки"!

Поиск

(Free Jazz, Tzadik) Milford Graves - Grand Unification - 1998, FLAC (tracks+.cue), lossless

Треклист:
Milford Graves - Grand Unification
Жанр: Free Jazz
Год выпуска диска: 1998
Производитель диска: Tzadik (7030)
Источник: вот.сиди (Naunaud)
Аудио кодек: FLAC
Тип рипа: tracks+.cue
Битрейт аудио: lossless
Продолжительность: 1:04:08
Треклист:
1 Grand Unification 5:12
2 Transcriptions 5:21
3 Gathering 10:29
4 Decisive Moments 15:17
5 Memory 5:24
6 Know Your Place 5:25
7 Intuitive Transformations 12:54
8 Transcendence 3:48
Recorded at Avatar, NYC on October 11, 1997.
Milford Graves drums, percussion
 
Отчёт EAC
Exact Audio Copy V0.99 prebeta 5 from 4. May 2009
EAC extraction logfile from 17. July 2010, 20:06
Milford Graves / Grand Unification
Used drive : PIONEER DVD-RW DVR-111D Adapter: 3 ID: 0
Read mode : Secure
Utilize accurate stream : Yes
Defeat audio cache : Yes
Make use of C2 pointers : No
Read offset correction : 48
Overread into Lead-In and Lead-Out : No
Fill up missing offset samples with silence : Yes
Delete leading and trailing silent blocks : No
Null samples used in CRC calculations : Yes
Used interface : Native Win32 interface for Win NT & 2000
Gap handling : Appended to previous track
Used output format : User Defined Encoder
Selected bitrate : 128 kBit/s
Quality : High
Add ID3 tag : No
Command line compressor : F:\Program Files\Exact Audio Copy\Flac\flac.exe
Additional command line options : -V -8 -T "artist=%a" -T "title=%t" -T "album=%g" -T "date=%y" -T "tracknumber=%n" -T "genre=%m" %s
TOC of the extracted CD
Track | Start | Length | Start sector | End sector
---------------------------------------------------------
1 | 0:00.00 | 5:13.55 | 0 | 23529
2 | 5:13.55 | 5:21.62 | 23530 | 47666
3 | 10:35.42 | 10:42.25 | 47667 | 95841
4 | 21:17.67 | 15:17.38 | 95842 | 164654
5 | 36:35.30 | 5:24.10 | 164655 | 188964
6 | 41:59.40 | 5:25.05 | 188965 | 213344
7 | 47:24.45 | 12:54.30 | 213345 | 271424
8 | 60:19.00 | 3:48.60 | 271425 | 288584
Track 1
Filename H:\MP3\Milford Graves - 1998 - Grand Unification [FLAC]\01 - Grand Unification.wav
Pre-gap length 0:00:02.00
Peak level 98.8 %
Track quality 100.0 %
Test CRC C1AB674E
Copy CRC C1AB674E
Track not present in AccurateRip database
Copy OK
Track 2
Filename H:\MP3\Milford Graves - 1998 - Grand Unification [FLAC]\02 - Transcriptions.wav
Peak level 98.8 %
Track quality 100.0 %
Test CRC FE81EF4D
Copy CRC FE81EF4D
Track not present in AccurateRip database
Copy OK
Track 3
Filename H:\MP3\Milford Graves - 1998 - Grand Unification [FLAC]\03 - Gathering.wav
Peak level 98.8 %
Track quality 100.0 %
Test CRC D1C75EA6
Copy CRC D1C75EA6
Track not present in AccurateRip database
Copy OK
Track 4
Filename H:\MP3\Milford Graves - 1998 - Grand Unification [FLAC]\04 - Decisive Moments.wav
Peak level 96.2 %
Track quality 99.9 %
Test CRC 58F26B9E
Copy CRC 58F26B9E
Track not present in AccurateRip database
Copy OK
Track 5
Filename H:\MP3\Milford Graves - 1998 - Grand Unification [FLAC]\05 - Memory.wav
Peak level 92.9 %
Track quality 100.0 %
Test CRC 6F52C4C3
Copy CRC 6F52C4C3
Track not present in AccurateRip database
Copy OK
Track 6
Filename H:\MP3\Milford Graves - 1998 - Grand Unification [FLAC]\06 - Know Your Place.wav
Peak level 94.0 %
Track quality 99.9 %
Test CRC E4463FFF
Copy CRC E4463FFF
Track not present in AccurateRip database
Copy OK
Track 7
Filename H:\MP3\Milford Graves - 1998 - Grand Unification [FLAC]\07 - Intuitive Transformations.wav
Peak level 98.4 %
Track quality 99.9 %
Test CRC 2977B45D
Copy CRC 2977B45D
Track not present in AccurateRip database
Copy OK
Track 8
Filename H:\MP3\Milford Graves - 1998 - Grand Unification [FLAC]\08 - Transcendence.wav
Peak level 13.2 %
Track quality 99.9 %
Test CRC E052B297
Copy CRC E052B297
Track not present in AccurateRip database
Copy OK
None of the tracks are present in the AccurateRip database
No errors occurred
End of status report
 
cue
REM GENRE Jazz
REM DATE 1998
REM DISCID 6B0F0708
REM COMMENT "ExactAudioCopy v0.99pb5"
FILE "01 - Grand Unification.wav" WAVE
TRACK 01 AUDIO
FLAGS DCP
INDEX 01 00:00:00
FILE "02 - Transcriptions.wav" WAVE
TRACK 02 AUDIO
FLAGS DCP
INDEX 01 00:00:00
FILE "03 - Gathering.wav" WAVE
TRACK 03 AUDIO
FLAGS DCP
INDEX 01 00:00:00
FILE "04 - Decisive Moments.wav" WAVE
TRACK 04 AUDIO
FLAGS DCP
INDEX 01 00:00:00
FILE "05 - Memory.wav" WAVE
TRACK 05 AUDIO
FLAGS DCP
INDEX 01 00:00:00
FILE "06 - Know Your Place.wav" WAVE
TRACK 06 AUDIO
FLAGS DCP
INDEX 01 00:00:00
FILE "07 - Intuitive Transformations.wav" WAVE
TRACK 07 AUDIO
FLAGS DCP
INDEX 01 00:00:00
FILE "08 - Transcendence.wav" WAVE
TRACK 08 AUDIO
FLAGS DCP
INDEX 01 00:00:00
 
Отчёт Audiocheckera
AUDIOCHECKER v2.0 beta (build 457) - by Dester - opdester@freemail.hu
~~~~~~~~~~~~~~~~~~~~~~~~~~~~~~~~~~
-=== DO NOT EDIT THIS FILE! ===-
Path: ...\Milford Graves - 1998 - Grand Unification [FLAC]
1 -=- 01 - Grand Unification.flac -=- CDDA (99%)
2 -=- 02 - Transcriptions.flac -=- CDDA (100%)
3 -=- 03 - Gathering.flac -=- CDDA (99%)
4 -=- 04 - Decisive Moments.flac -=- CDDA (100%)
5 -=- 05 - Memory.flac -=- CDDA (99%)
6 -=- 06 - Know Your Place.flac -=- CDDA (100%)
7 -=- 07 - Intuitive Transformations.flac -=- CDDA (99%)
8 -=- 08 - Transcendence.flac -=- MPEG (100%)
Summary 87,00% CDDA
201932804
 
Сректр 8 Transcendence
[img]
[/img]
По всем вопросам пишите личное сообщение пользователю M0p94ok.
01:46
221
Нет комментариев. Ваш будет первым!