Вы используете незарегистрированную версию компонента "Вкладки"!

Поиск

(Free Jazz, Trumpet Jazz) [CD] Matthew Halsall - Fletcher Moss Park - 2012, FLAC (tracks+.cue), lossless

(Free Jazz, Trumpet Jazz) [CD] Matthew Halsall - Fletcher Moss Park - 2012, FLAC (tracks+.cue), lossless
Треклист:
Matthew Halsall - Fletcher Moss Park
Жанр: Free Jazz, Trumpet Jazz
Носитель: CD
Страна-производитель диска (релиза): UK
Год издания: 2012
Издатель (лейбл): Gondwana Records
Номер по каталогу: GONDCD007
Аудиокодек: FLAC (*.flac)
Тип рипа: tracks+.cue
Битрейт аудио: lossless
Продолжительность: 00:39:52
Источник (релизер): tnm237
Наличие сканов в содержимом раздачи: нет
Треклист:
01. - Cherry Blossom.
02. - Fletcher Moss Park.
03. - Mary Emma Louise.
04. - Sailing Out to Sea.
05. - Wee Lan (Little Orchid).
06. - The Sun in September.
07. - Finding My Way.
 
Лог создания рипа
Exact Audio Copy V1.0 beta 3 from 29. August 2011
EAC extraction logfile from 2. January 2015, 18:25
Matthew Halsall / Fletcher Moss Park
Used drive : TSSTcorpCDDVDW SH-224DB Adapter: 0 ID: 0
Read mode : Secure
Utilize accurate stream : Yes
Defeat audio cache : Yes
Make use of C2 pointers : No
Read offset correction : 6
Overread into Lead-In and Lead-Out : No
Fill up missing offset samples with silence : Yes
Delete leading and trailing silent blocks : No
Null samples used in CRC calculations : Yes
Used interface : Native Win32 interface for Win NT & 2000
Gap handling : Appended to previous track
Used output format : User Defined Encoder
Selected bitrate : 128 kBit/s
Quality : High
Add ID3 tag : No
Command line compressor : C:\Program Files (x86)\Exact Audio Copy\Flac\flac.exe
Additional command line options : -8 -V -T "ARTIST=%artist%" -T "TITLE=%title%" -T "ALBUM=%albumtitle%" -T "DATE=%year%" -T "TRACKNUMBER=%tracknr%" -T "GENRE=%genre%" -T "PERFORMER=%albuminterpret%" -T "COMPOSER=%composer%" %haslyrics%--tag-from-file=LYRICS="%lyricsfile%"%haslyrics% -T "ALBUMARTIST=%albumartist%" -T "DISCNUMBER=%cdnumber%" -T "TOTALDISCS=%totalcds%" -T "TOTALTRACKS=%numtracks%" -T "COMMENT=%comment%" %source% -o %dest%
TOC of the extracted CD
Track | Start | Length | Start sector | End sector
---------------------------------------------------------
1 | 0:00.00 | 7:21.34 | 0 | 33108
2 | 7:21.34 | 5:45.63 | 33109 | 59046
3 | 13:07.22 | 6:36.53 | 59047 | 88799
4 | 19:44.00 | 1:29.49 | 88800 | 95523
5 | 21:13.49 | 2:31.47 | 95524 | 106895
6 | 23:45.21 | 7:50.07 | 106896 | 142152
7 | 31:35.28 | 8:17.06 | 142153 | 179433
Track 1
Filename M:\Megatask\Matthew Halsall - (2012) - Fletcher Moss Park\01 - Cherry Blossom.wav
Pre-gap length 0:00:02.00
Peak level 99.1 %
Extraction speed 1.9 X
Track quality 100.0 %
Test CRC C071AF48
Copy CRC C071AF48
Accurately ripped (confidence 3) [AEDAC241] (AR v2)
Copy OK
Track 2
Filename M:\Megatask\Matthew Halsall - (2012) - Fletcher Moss Park\02 - Fletcher Moss Park.wav
Peak level 99.4 %
Extraction speed 2.2 X
Track quality 100.0 %
Test CRC B9BD97F1
Copy CRC B9BD97F1
Accurately ripped (confidence 3) [751874C7] (AR v2)
Copy OK
Track 3
Filename M:\Megatask\Matthew Halsall - (2012) - Fletcher Moss Park\03 - Mary Emma Louise.wav
Peak level 100.0 %
Extraction speed 2.2 X
Track quality 99.9 %
Test CRC 54BCD451
Copy CRC 54BCD451
Accurately ripped (confidence 3) [F3E46467] (AR v2)
Copy OK
Track 4
Filename M:\Megatask\Matthew Halsall - (2012) - Fletcher Moss Park\04 - Sailing Out to Sea.wav
Peak level 89.8 %
Extraction speed 1.4 X
Track quality 99.8 %
Test CRC BB82286B
Copy CRC BB82286B
Accurately ripped (confidence 3) [E713C50E] (AR v2)
Copy OK
Track 5
Filename M:\Megatask\Matthew Halsall - (2012) - Fletcher Moss Park\05 - Wee Lan (Little Orchid).wav
Peak level 98.8 %
Extraction speed 2.3 X
Track quality 100.0 %
Test CRC 0FA19C3E
Copy CRC 0FA19C3E
Accurately ripped (confidence 3) [0FBE506B] (AR v2)
Copy OK
Track 6
Filename M:\Megatask\Matthew Halsall - (2012) - Fletcher Moss Park\06 - The Sun in September.wav
Peak level 99.0 %
Extraction speed 2.6 X
Track quality 99.9 %
Test CRC C62A9C56
Copy CRC C62A9C56
Accurately ripped (confidence 3) [8CBE47FB] (AR v2)
Copy OK
Track 7
Filename M:\Megatask\Matthew Halsall - (2012) - Fletcher Moss Park\07 - Finding My Way.wav
Peak level 99.9 %
Extraction speed 3.2 X
Track quality 100.0 %
Test CRC 6234CA56
Copy CRC 6234CA56
Accurately ripped (confidence 3) [869EA389] (AR v2)
Copy OK
All tracks accurately ripped
No errors occurred
End of status report
---- CUETools DB Plugin V2.1.3
[CTDB TOCID: a.92MQ6duVVTgKtCl1pUvIZ2tas-] found, Submit result: a.92MQ6duVVTgKtCl1pUvIZ2tas- has been confirmed
[647b1a57] (1/1) Accurately ripped
==== Log checksum 8E74A08CCBB595D2A358F8F4654EFCFDDB7D4728E061C3F823550CF808ED874C ====
 
Содержание индексной карты (.CUE)
REM GENRE Jazz
REM DATE 2012
REM DISCID 6B095807
REM COMMENT "ExactAudioCopy v1.0b3"
PERFORMER "Matthew Halsall"
TITLE "Fletcher Moss Park"
FILE "01 - Cherry Blossom.wav" WAVE
TRACK 01 AUDIO
TITLE "Cherry Blossom"
PERFORMER "Matthew Halsall"
ISRC GBVTB1207001
INDEX 01 00:00:00
FILE "02 - Fletcher Moss Park.wav" WAVE
TRACK 02 AUDIO
TITLE "Fletcher Moss Park"
PERFORMER "Matthew Halsall"
ISRC GBVTB1207002
INDEX 01 00:00:00
FILE "03 - Mary Emma Louise.wav" WAVE
TRACK 03 AUDIO
TITLE "Mary Emma Louise"
PERFORMER "Matthew Halsall"
ISRC GBVTB1207003
INDEX 01 00:00:00
FILE "04 - Sailing Out to Sea.wav" WAVE
TRACK 04 AUDIO
TITLE "Sailing Out to Sea"
PERFORMER "Matthew Halsall"
ISRC GBVTB1207004
INDEX 01 00:00:00
FILE "05 - Wee Lan (Little Orchid).wav" WAVE
TRACK 05 AUDIO
TITLE "Wee Lan (Little Orchid)"
PERFORMER "Matthew Halsall"
ISRC GBVTB1207004
INDEX 01 00:00:00
FILE "06 - The Sun in September.wav" WAVE
TRACK 06 AUDIO
TITLE "The Sun in September"
PERFORMER "Matthew Halsall"
ISRC GBVTB1207006
INDEX 01 00:00:00
FILE "07 - Finding My Way.wav" WAVE
TRACK 07 AUDIO
TITLE "Finding My Way"
PERFORMER "Matthew Halsall"
ISRC GBVTB1207007
INDEX 01 00:00:00
 
Об альбоме (сборнике)
Bass – Gavin Barras
Cello – Adrianne Wininsky (tracks: 4, 5)
Composed By – Matthew Halsall
Design – Daniel Halsall
Drums – Gaz Hughes (tracks: 1, 2, 3), Luke Flowers (tracks: 6, 7)
Flute – Lisa Mallett (tracks: 6)
Harp – Rachael Gladwin (tracks: 1, 2, 3, 6)
Mastered By – George Atkins
Mixed By – Brendan Williams, Matthew Halsall
Photography By [Photos] – Simon Hunt (5)
Piano – Adam Fairhall (tracks: 1, 2, 3), Taz Modi* (tracks: 6, 7)
Recorded By – Brendan Williams, George Atkins (tracks: 6, 7)
Saxophone – Nat Birchall (tracks: 1, 2, 3)
Trumpet – Matthew Halsall
Violin – Davinder Singh* (tracks: 4, 5), Holly Simpson (2) (tracks: 4, 5)
По всем вопросам пишите личное сообщение пользователю M0p94ok.
10:04
229
Нет комментариев. Ваш будет первым!