Вы используете незарегистрированную версию компонента "Вкладки"!

Поиск

(free jazz) Thomas Chapin - Never Let Me Go- Quartets '95 & '96 (2012), FLAC (tracks+.cue), lossless

(free jazz) Thomas Chapin - Never Let Me Go- Quartets '95 & '96 (2012), FLAC (tracks+.cue), lossless
Треклист:


Thomas Chapin
Never Let Me Go: Quartets '95 & '96
Жанр:free jazz
Год выпуска: 2012
Издатель (лейбл): 2012, Playscape Recordings
Формат: FLAC (tracks+.cue)
Битрейт аудио: lossless
Продолжительность: 3`10`44
Источник: what.cd, Yanntje
Unless you were there, this is Thomas Chapin like you've never heard him before.
In the mid-1990's, the innovative multi-instrumentalist and composer was at the peak of his powers and just beginning to explore both the harmonic possibilities of the quartet format (following several records with his acclaimed trio) and the potential of his growing international fame beyond New York's Downtown Jazz Scene. Sadly, he was also just a short time away from being diagnosed with the leukemia that would abruptly end his life at age 40 in early 1998.
Never Let Me Go: Quartets '95 & '96 thoughtfully chronicles the final chapter of Chapin's career with previously unavailable recordings from his family's private archive. Produced in cooperation with Akasha, Inc., this three-disc set documents two complete concerts: a November 1995 show with his working quartet from the early 90's (featuring Peter Madsen, Kiyoto Fujiwara and Reggie Nicholson) and his final New York performance in December 1996 with a brand new quartet (featuring Madsen, Scott Colley and Matt Wilson) that he hoped would take him into the future.
 
cd 1

1. I've Got Your Number
2. Moonray
3. Opuwo
4. You Don't Know Me
5. Scratch Boogie

 
.log
Exact Audio Copy V1.0 beta 3 from 29. August 2011
EAC extraction logfile from 28. April 2013, 15:36
Thomas Chapin / Never Let Me Go: Quartets '95 & '96
Used drive : MATSHITADVD-RAM UJ-850 z Adapter: 1 ID: 0
Read mode : Secure
Utilize accurate stream : Yes
Defeat audio cache : Yes
Make use of C2 pointers : No
Read offset correction : 102
Overread into Lead-In and Lead-Out : No
Fill up missing offset samples with silence : Yes
Delete leading and trailing silent blocks : No
Null samples used in CRC calculations : Yes
Used interface : Native Win32 interface for Win NT & 2000
Gap handling : Appended to previous track
Used output format : User Defined Encoder
Selected bitrate : 1024 kBit/s
Quality : High
Add ID3 tag : No
Command line compressor : C:\Program Files\Exact Audio Copy\Flac\flac.exe
Additional command line options : -8 -V -T "ARTIST=%artist%" -T "TITLE=%title%" -T "ALBUM=%albumtitle%" -T "DATE=%year%" -T "TRACKNUMBER=%tracknr%" -T "GENRE=%genre%" -T "PERFORMER=%albuminterpret%" -T "COMPOSER=%composer%" %haslyrics%--tag-from-file=LYRICS="%lyricsfile%"%haslyrics% -T "ALBUMARTIST=%albumartist%" -T "DISCNUMBER=%cdnumber%" -T "TOTALDISCS=%totalcds%" -T "TOTALTRACKS=%numtracks%" -T "COMMENT=%comment%" %source% -o %dest%
TOC of the extracted CD
Track | Start | Length | Start sector | End sector
---------------------------------------------------------
1 | 0:00.00 | 13:50.72 | 0 | 62321
2 | 13:50.72 | 17:23.68 | 62322 | 140614
3 | 31:14.65 | 18:04.64 | 140615 | 221978
4 | 49:19.54 | 10:18.66 | 221979 | 268394
5 | 59:38.45 | 13:54.46 | 268395 | 330990
Track 1
Filename C:\EAC Rips\Thomas Chapin - Never Let Me Go (Quartets '95 & '96) (2012) [FLAC]\CD1\01 - I've Got Your Number.wav
Pre-gap length 0:00:02.00
Peak level 96.6 %
Extraction speed 1.8 X
Track quality 99.9 %
Test CRC D70F0CBE
Copy CRC D70F0CBE
Track not present in AccurateRip database
Copy OK
Track 2
Filename C:\EAC Rips\Thomas Chapin - Never Let Me Go (Quartets '95 & '96) (2012) [FLAC]\CD1\02 - Moonray.wav
Peak level 96.6 %
Extraction speed 2.4 X
Track quality 100.0 %
Test CRC 4DE0C6EA
Copy CRC 4DE0C6EA
Track not present in AccurateRip database
Copy OK
Track 3
Filename C:\EAC Rips\Thomas Chapin - Never Let Me Go (Quartets '95 & '96) (2012) [FLAC]\CD1\03 - Opuwo.wav
Peak level 96.6 %
Extraction speed 2.9 X
Track quality 100.0 %
Test CRC B9F11017
Copy CRC B9F11017
Track not present in AccurateRip database
Copy OK
Track 4
Filename C:\EAC Rips\Thomas Chapin - Never Let Me Go (Quartets '95 & '96) (2012) [FLAC]\CD1\04 - You Don't Know Me.wav
Peak level 96.6 %
Extraction speed 3.2 X
Track quality 100.0 %
Test CRC B3D75EF1
Copy CRC B3D75EF1
Track not present in AccurateRip database
Copy OK
Track 5
Filename C:\EAC Rips\Thomas Chapin - Never Let Me Go (Quartets '95 & '96) (2012) [FLAC]\CD1\05 - Scratch Boogie.wav
Peak level 96.6 %
Extraction speed 3.5 X
Track quality 100.0 %
Test CRC 765495E3
Copy CRC 765495E3
Track not present in AccurateRip database
Copy OK
None of the tracks are present in the AccurateRip database
No errors occurred
End of status report
---- CUETools DB Plugin V2.1.3
[CTDB TOCID: rjX6MGx7FZ1DzyjD1j16htrY7NI-] database access error: The remote name could not be resolved: 'db.cuetools.net'
==== Log checksum 43C5AFCD83350696A4959DC585ACF0DC371BEB3FC50A4A3706341774A14B1B67 ====
 
.cue
REM GENRE Jazz
REM DATE 2012
REM DISCID 47113D05
REM COMMENT "ExactAudioCopy v1.0b3"
PERFORMER "Thomas Chapin"
TITLE "Never Let Me Go: Quartets '95 & '96 CD1"
FILE "01 - I've Got Your Number.wav" WAVE
TRACK 01 AUDIO
TITLE "I've Got Your Number"
PERFORMER "Thomas Chapin"
INDEX 01 00:00:00
FILE "02 - Moonray.wav" WAVE
TRACK 02 AUDIO
TITLE "Moonray"
PERFORMER "Thomas Chapin"
INDEX 01 00:00:00
FILE "03 - Opuwo.wav" WAVE
TRACK 03 AUDIO
TITLE "Opuwo"
PERFORMER "Thomas Chapin"
INDEX 01 00:00:00
FILE "04 - You Don't Know Me.wav" WAVE
TRACK 04 AUDIO
TITLE "You Don't Know Me"
PERFORMER "Thomas Chapin"
INDEX 01 00:00:00
FILE "05 - Scratch Boogie.wav" WAVE
TRACK 05 AUDIO
TITLE "Scratch Boogie"
PERFORMER "Thomas Chapin"
INDEX 01 00:00:00
 
cd 2

1. Ugly Beauty
2. Red Cross
3. Wichita Lineman
4. Never Let Me Go
5. Spanky House

 
.log
Exact Audio Copy V1.0 beta 3 from 29. August 2011
EAC extraction logfile from 28. April 2013, 16:33
Thomas Chapin / Never Let Me Go: Quartets '95 & '96
Used drive : MATSHITADVD-RAM UJ-850 z Adapter: 1 ID: 0
Read mode : Secure
Utilize accurate stream : Yes
Defeat audio cache : Yes
Make use of C2 pointers : No
Read offset correction : 102
Overread into Lead-In and Lead-Out : No
Fill up missing offset samples with silence : Yes
Delete leading and trailing silent blocks : No
Null samples used in CRC calculations : Yes
Used interface : Native Win32 interface for Win NT & 2000
Gap handling : Appended to previous track
Used output format : User Defined Encoder
Selected bitrate : 1024 kBit/s
Quality : High
Add ID3 tag : No
Command line compressor : C:\Program Files\Exact Audio Copy\Flac\flac.exe
Additional command line options : -8 -V -T "ARTIST=%artist%" -T "TITLE=%title%" -T "ALBUM=%albumtitle%" -T "DATE=%year%" -T "TRACKNUMBER=%tracknr%" -T "GENRE=%genre%" -T "PERFORMER=%albuminterpret%" -T "COMPOSER=%composer%" %haslyrics%--tag-from-file=LYRICS="%lyricsfile%"%haslyrics% -T "ALBUMARTIST=%albumartist%" -T "DISCNUMBER=%cdnumber%" -T "TOTALDISCS=%totalcds%" -T "TOTALTRACKS=%numtracks%" -T "COMMENT=%comment%" %source% -o %dest%
TOC of the extracted CD
Track | Start | Length | Start sector | End sector
---------------------------------------------------------
1 | 0:00.00 | 4:30.28 | 0 | 20277
2 | 4:30.28 | 15:39.42 | 20278 | 90744
3 | 20:09.70 | 11:19.15 | 90745 | 141684
4 | 31:29.10 | 9:31.03 | 141685 | 184512
5 | 41:00.13 | 8:39.49 | 184513 | 223486
Track 1
Filename C:\EAC Rips\Thomas Chapin - Never Let Me Go (Quartets '95 & '96) (2012) [FLAC]\CD2\01 - Ugly Beauty.wav
Pre-gap length 0:00:02.00
Peak level 96.5 %
Extraction speed 1.6 X
Track quality 100.0 %
Test CRC E22504D4
Copy CRC E22504D4
Track not present in AccurateRip database
Copy OK
Track 2
Filename C:\EAC Rips\Thomas Chapin - Never Let Me Go (Quartets '95 & '96) (2012) [FLAC]\CD2\02 - Red Cross.wav
Peak level 96.6 %
Extraction speed 2.0 X
Track quality 99.9 %
Test CRC 64509259
Copy CRC 64509259
Track not present in AccurateRip database
Copy OK
Track 3
Filename C:\EAC Rips\Thomas Chapin - Never Let Me Go (Quartets '95 & '96) (2012) [FLAC]\CD2\03 - Wichita Lineman.wav
Peak level 96.6 %
Extraction speed 2.5 X
Track quality 100.0 %
Test CRC 7339F495
Copy CRC 7339F495
Track not present in AccurateRip database
Copy OK
Track 4
Filename C:\EAC Rips\Thomas Chapin - Never Let Me Go (Quartets '95 & '96) (2012) [FLAC]\CD2\04 - Never Let Me Go.wav
Peak level 96.6 %
Extraction speed 2.7 X
Track quality 99.9 %
Test CRC 08A20D73
Copy CRC 08A20D73
Track not present in AccurateRip database
Copy OK
Track 5
Filename C:\EAC Rips\Thomas Chapin - Never Let Me Go (Quartets '95 & '96) (2012) [FLAC]\CD2\05 - Spanky House.wav
Peak level 96.6 %
Extraction speed 3.0 X
Track quality 100.0 %
Test CRC C9E746F1
Copy CRC C9E746F1
Track not present in AccurateRip database
Copy OK
None of the tracks are present in the AccurateRip database
No errors occurred
End of status report
---- CUETools DB Plugin V2.1.3
[CTDB TOCID: l2UFK5FeHmv5l43yr5VNT3UPhEQ-] database access error: The remote name could not be resolved: 'db.cuetools.net'
==== Log checksum 21DFE70AD9D4965F2FF49E5230296DF62DC4D9F7ABEA36FA341AE1E0AF08F1A7 ====
 
.cue
REM GENRE Jazz
REM DATE 2012
REM DISCID 330BA305
REM COMMENT "ExactAudioCopy v1.0b3"
PERFORMER "Thomas Chapin"
TITLE "Never Let Me Go: Quartets '95 & '96 CD2"
FILE "01 - Ugly Beauty.wav" WAVE
TRACK 01 AUDIO
TITLE "Ugly Beauty"
PERFORMER "Thomas Chapin"
INDEX 01 00:00:00
FILE "02 - Red Cross.wav" WAVE
TRACK 02 AUDIO
TITLE "Red Cross"
PERFORMER "Thomas Chapin"
INDEX 01 00:00:00
FILE "03 - Wichita Lineman.wav" WAVE
TRACK 03 AUDIO
TITLE "Wichita Lineman"
PERFORMER "Thomas Chapin"
INDEX 01 00:00:00
FILE "04 - Never Let Me Go.wav" WAVE
TRACK 04 AUDIO
TITLE "Never Let Me Go"
PERFORMER "Thomas Chapin"
INDEX 01 00:00:00
FILE "05 - Spanky House.wav" WAVE
TRACK 05 AUDIO
TITLE "Spanky House"
PERFORMER "Thomas Chapin"
INDEX 01 00:00:00
 
cd 3

1. Whirlygig
2. Big Maybe
3. Flip Side
4. Sky Piece
5. Lovellevellilloqui

 
.log
Exact Audio Copy V1.0 beta 3 from 29. August 2011
EAC extraction logfile from 28. April 2013, 17:36
Thomas Chapin / Never Let Me Go: Quartets '95 & '96
Used drive : MATSHITADVD-RAM UJ-850 z Adapter: 1 ID: 0
Read mode : Secure
Utilize accurate stream : Yes
Defeat audio cache : Yes
Make use of C2 pointers : No
Read offset correction : 102
Overread into Lead-In and Lead-Out : No
Fill up missing offset samples with silence : Yes
Delete leading and trailing silent blocks : No
Null samples used in CRC calculations : Yes
Used interface : Native Win32 interface for Win NT & 2000
Gap handling : Appended to previous track
Used output format : User Defined Encoder
Selected bitrate : 1024 kBit/s
Quality : High
Add ID3 tag : No
Command line compressor : C:\Program Files\Exact Audio Copy\Flac\flac.exe
Additional command line options : -8 -V -T "ARTIST=%artist%" -T "TITLE=%title%" -T "ALBUM=%albumtitle%" -T "DATE=%year%" -T "TRACKNUMBER=%tracknr%" -T "GENRE=%genre%" -T "PERFORMER=%albuminterpret%" -T "COMPOSER=%composer%" %haslyrics%--tag-from-file=LYRICS="%lyricsfile%"%haslyrics% -T "ALBUMARTIST=%albumartist%" -T "DISCNUMBER=%cdnumber%" -T "TOTALDISCS=%totalcds%" -T "TOTALTRACKS=%numtracks%" -T "COMMENT=%comment%" %source% -o %dest%
TOC of the extracted CD
Track | Start | Length | Start sector | End sector
---------------------------------------------------------
1 | 0:00.00 | 13:46.09 | 0 | 61958
2 | 13:46.09 | 15:15.31 | 61959 | 130614
3 | 29:01.40 | 13:23.43 | 130615 | 190882
4 | 42:25.08 | 14:29.03 | 190883 | 256060
5 | 56:54.11 | 10:36.74 | 256061 | 303834
Track 1
Filename C:\EAC Rips\Thomas Chapin - Never Let Me Go (Quartets '95 & '96) (2012) [FLAC]\CD3\01 - Whirlygig.wav
Pre-gap length 0:00:02.00
Peak level 96.5 %
Extraction speed 1.9 X
Track quality 100.0 %
Test CRC EE76A371
Copy CRC EE76A371
Track not present in AccurateRip database
Copy OK
Track 2
Filename C:\EAC Rips\Thomas Chapin - Never Let Me Go (Quartets '95 & '96) (2012) [FLAC]\CD3\02 - Big Maybe.wav
Peak level 96.5 %
Extraction speed 2.4 X
Track quality 100.0 %
Test CRC 8483FBA7
Copy CRC 8483FBA7
Track not present in AccurateRip database
Copy OK
Track 3
Filename C:\EAC Rips\Thomas Chapin - Never Let Me Go (Quartets '95 & '96) (2012) [FLAC]\CD3\03 - Flip Side.wav
Peak level 96.6 %
Extraction speed 2.8 X
Track quality 100.0 %
Test CRC 2DA2CDB5
Copy CRC 2DA2CDB5
Track not present in AccurateRip database
Copy OK
Track 4
Filename C:\EAC Rips\Thomas Chapin - Never Let Me Go (Quartets '95 & '96) (2012) [FLAC]\CD3\04 - Sky Piece.wav
Peak level 96.6 %
Extraction speed 3.2 X
Track quality 100.0 %
Test CRC 122FFE73
Copy CRC 122FFE73
Track not present in AccurateRip database
Copy OK
Track 5
Filename C:\EAC Rips\Thomas Chapin - Never Let Me Go (Quartets '95 & '96) (2012) [FLAC]\CD3\05 - Lovellevellilloqui.wav
Peak level 96.6 %
Extraction speed 3.4 X
Track quality 100.0 %
Test CRC 5FA353A9
Copy CRC 5FA353A9
Track not present in AccurateRip database
Copy OK
None of the tracks are present in the AccurateRip database
No errors occurred
End of status report
---- CUETools DB Plugin V2.1.3
[CTDB TOCID: 0DEQ0pHonHqy7TOVv5XvMdS88uE-] database access error: The remote name could not be resolved: 'db.cuetools.net'
==== Log checksum 486CDBCD148CCA82CA08231EEB0C73FCCA2ABC9F2530F3B6D347ABC2A882F60B ====
 
.cue
REM GENRE Jazz
REM DATE 2012
REM DISCID 430FD305
REM COMMENT "ExactAudioCopy v1.0b3"
PERFORMER "Thomas Chapin"
TITLE "Never Let Me Go: Quartets '95 & '96 CD3"
FILE "01 - Whirlygig.wav" WAVE
TRACK 01 AUDIO
TITLE "Whirlygig"
PERFORMER "Thomas Chapin"
INDEX 01 00:00:00
FILE "02 - Big Maybe.wav" WAVE
TRACK 02 AUDIO
TITLE "Big Maybe"
PERFORMER "Thomas Chapin"
INDEX 01 00:00:00
FILE "03 - Flip Side.wav" WAVE
TRACK 03 AUDIO
TITLE "Flip Side"
PERFORMER "Thomas Chapin"
INDEX 01 00:00:00
FILE "04 - Sky Piece.wav" WAVE
TRACK 04 AUDIO
TITLE "Sky Piece"
PERFORMER "Thomas Chapin"
INDEX 01 00:00:00
FILE "05 - Lovellevellilloqui.wav" WAVE
TRACK 05 AUDIO
TITLE "Lovellevellilloqui"
PERFORMER "Thomas Chapin"
INDEX 01 00:00:00
другие релизы
Any questions -> support@pro-jazz.com. По всем вопросам пишите -> support@pro-jazz.com
15:47
174
Нет комментариев. Ваш будет первым!