Вы используете незарегистрированную версию компонента "Вкладки"!

Поиск

(Avant-Garde, Free Improvisation, Altri Suoni) Ian Gordon-Lennox - Low Brass - 1999 (?), FLAC (tracks+.cue), lossless

(Avant-Garde, Free Improvisation, Altri Suoni) Ian Gordon-Lennox - Low Brass - 1999 (?), FLAC (tracks+.cue), lossless
Треклист:
Ian Gordon-Lennox / Low Brass
Жанр: Avant-Garde, Free Improvisation, Altri Suoni
Страна-производитель диска: Switzerland
Год издания: 1999 (?)
Издатель (лейбл): Altrisuoni
Номер по каталогу: AS 049
Аудиокодек: FLAC (*.flac)
Тип рипа: tracks+.cue
Битрейт аудио: lossless
Продолжительность: 59:42
Источник (релизер): Max Monteiro
Наличие сканов в содержимом раздачи: нет
Треклист:
01. Vilnius 5:21
02. Constructions 6:40
03. Tom’s Blues 7:54
04. Bassecour 1:01
05. Blues for Alec 4:30
06. Little Man’s World 6:20
07. Ballade – Les Nuits difficiles 8:02
08. Jazzy-Go-Lucky 6:49
09. Sushila 4:53
10. Babar Brass 8:12
All compositions by Ian Gordon-Lennox except 6 by Robert Morgenthaler and 7 by Pascal Schaer.
Recorded on September 1, 2, 3 & 4, 1995 at « Chorus », Lausanne, Switzerland.
Ian Gordon-Lennox – Tuba, Euphonium & Alphorn
Yves Cerf – Bass Saxophone & Kena
Antonio de Rosa – Baritone & Soprano Saxophones
Robert Morgenthaler – Trombone & Alphorn
Pascal Schaer – Trombone & Alphorn
 
Лог создания рипа
Exact Audio Copy V1.0 beta 3 from 29. August 2011
EAC extraction logfile from 4. July 2013, 12:33
Ian Gordon-Lennox / Low Brass
Used drive : SlimtypeeNAU508 5 Adapter: 1 ID: 0
Read mode : Secure
Utilize accurate stream : Yes
Defeat audio cache : Yes
Make use of C2 pointers : No
Read offset correction : 6
Overread into Lead-In and Lead-Out : No
Fill up missing offset samples with silence : Yes
Delete leading and trailing silent blocks : No
Null samples used in CRC calculations : Yes
Used interface : Native Win32 interface for Win NT & 2000
Gap handling : Appended to previous track
Used output format : User Defined Encoder
Selected bitrate : 768 kBit/s
Quality : High
Add ID3 tag : No
Command line compressor : C:\Program Files (x86)\Exact Audio Copy\Flac\flac.exe
Additional command line options : -8 -V -T "ARTIST=%artist%" -T "TITLE=%title%" -T "ALBUM=%albumtitle%" -T "DATE=%year%" -T "TRACKNUMBER=%tracknr%" -T "GENRE=%genre%" -T "PERFORMER=%albuminterpret%" -T "COMPOSER=%composer%" %haslyrics%--tag-from-file=LYRICS="%lyricsfile%"%haslyrics% -T "ALBUMARTIST=%albumartist%" -T "DISCNUMBER=%cdnumber%" -T "TOTALDISCS=%totalcds%" -T "TOTALTRACKS=%numtracks%" -T "COMMENT=%comment%" %source% -o %dest%
TOC of the extracted CD
Track | Start | Length | Start sector | End sector
---------------------------------------------------------
1 | 0:00.00 | 5:20.40 | 0 | 24039
2 | 5:20.40 | 6:40.34 | 24040 | 54073
3 | 12:00.74 | 7:54.08 | 54074 | 89631
4 | 19:55.07 | 1:01.03 | 89632 | 94209
5 | 20:56.10 | 4:30.10 | 94210 | 114469
6 | 25:26.20 | 6:19.54 | 114470 | 142948
7 | 31:45.74 | 8:02.07 | 142949 | 179105
8 | 39:48.06 | 6:49.15 | 179106 | 209795
9 | 46:37.21 | 4:52.63 | 209796 | 231758
10 | 51:30.09 | 8:11.73 | 231759 | 268656
Track 1
Filename C:\EAC rips\01 - Vilnius.wav
Pre-gap length 0:00:02.00
Peak level 97.8 %
Extraction speed 1.8 X
Track quality 100.0 %
Test CRC C424E6BD
Copy CRC C424E6BD
Track not present in AccurateRip database
Copy OK
Track 2
Filename C:\EAC rips\02 - Constructions.wav
Pre-gap length 0:00:00.63
Peak level 98.3 %
Extraction speed 2.1 X
Track quality 100.0 %
Test CRC F571E97D
Copy CRC F571E97D
Track not present in AccurateRip database
Copy OK
Track 3
Filename C:\EAC rips\03 - Tom's Blues.wav
Pre-gap length 0:00:01.17
Peak level 100.0 %
Extraction speed 2.0 X
Track quality 99.9 %
Test CRC 2C5E7295
Copy CRC 2C5E7295
Track not present in AccurateRip database
Copy OK
Track 4
Filename C:\EAC rips\04 - Bassecour.wav
Peak level 91.1 %
Extraction speed 0.9 X
Track quality 99.8 %
Test CRC 44B64D62
Copy CRC 44B64D62
Track not present in AccurateRip database
Copy OK
Track 5
Filename C:\EAC rips\05 - Blues for Alee.wav
Peak level 98.2 %
Extraction speed 2.6 X
Track quality 100.0 %
Test CRC 28375153
Copy CRC 28375153
Track not present in AccurateRip database
Copy OK
Track 6
Filename C:\EAC rips\06 - Little Man's World.wav
Pre-gap length 0:00:00.69
Peak level 100.0 %
Extraction speed 2.5 X
Track quality 100.0 %
Test CRC A26FAB72
Copy CRC A26FAB72
Track not present in AccurateRip database
Copy OK
Track 7
Filename C:\EAC rips\07 - Ballade - Les Nuits difficiles.wav
Pre-gap length 0:00:01.18
Peak level 100.0 %
Extraction speed 2.2 X
Track quality 100.0 %
Test CRC EBCAC92F
Copy CRC EBCAC92F
Track not present in AccurateRip database
Copy OK
Track 8
Filename C:\EAC rips\08 - Jazzy-Go-Lucky.wav
Pre-gap length 0:00:00.67
Peak level 98.9 %
Extraction speed 3.2 X
Track quality 100.0 %
Test CRC B31586B3
Copy CRC B31586B3
Track not present in AccurateRip database
Copy OK
Track 9
Filename C:\EAC rips\09 - Sushila.wav
Pre-gap length 0:00:03.17
Peak level 96.9 %
Extraction speed 3.2 X
Track quality 100.0 %
Test CRC 92BC7C8B
Copy CRC 92BC7C8B
Track not present in AccurateRip database
Copy OK
Track 10
Filename C:\EAC rips\10 - Babar Brass.wav
Pre-gap length 0:00:01.32
Peak level 98.1 %
Extraction speed 3.6 X
Track quality 100.0 %
Test CRC E94845D1
Copy CRC E94845D1
Track not present in AccurateRip database
Copy OK
None of the tracks are present in the AccurateRip database
No errors occurred
End of status report
---- CUETools DB Plugin V2.1.4
[CTDB TOCID: TdgsLbmOT_TZj4TxmqGK0GeT85k-] found
Submit result: already submitted
Track | CTDB Status
1 | (1/1) Accurately ripped
2 | (1/1) Accurately ripped
3 | (1/1) Accurately ripped
4 | (1/1) Accurately ripped
5 | (1/1) Accurately ripped
6 | (1/1) Accurately ripped
7 | (1/1) Accurately ripped
8 | (1/1) Accurately ripped
9 | (1/1) Accurately ripped
10 | (1/1) Accurately ripped
==== Log checksum E320F92C8C19DE2E7ECCAABE45A99E490B091CFC65883D5868489C452E7DEDD5 ====
 
Содержание индексной карты (.CUE)
REM GENRE Jazz
REM DATE 1999
REM DISCID 8E0DFE0A
REM COMMENT "ExactAudioCopy v1.0b3"
CATALOG 7619993000497
PERFORMER "Ian Gordon-Lennox"
TITLE "Low Brass"
FILE "01 - Vilnius.wav" WAVE
TRACK 01 AUDIO
TITLE "Vilnius"
PERFORMER "Ian Gordon-Lennox"
FLAGS DCP
INDEX 01 00:00:00
TRACK 02 AUDIO
TITLE "Constructions"
PERFORMER "Ian Gordon-Lennox"
FLAGS DCP
INDEX 00 05:19:52
FILE "02 - Constructions.wav" WAVE
INDEX 01 00:00:00
TRACK 03 AUDIO
TITLE "Tom's Blues"
PERFORMER "Ian Gordon-Lennox"
FLAGS DCP
INDEX 00 06:39:17
FILE "03 - Tom's Blues.wav" WAVE
INDEX 01 00:00:00
FILE "04 - Bassecour.wav" WAVE
TRACK 04 AUDIO
TITLE "Bassecour"
PERFORMER "Ian Gordon-Lennox"
FLAGS DCP
INDEX 01 00:00:00
FILE "05 - Blues for Alee.wav" WAVE
TRACK 05 AUDIO
TITLE "Blues for Alee"
PERFORMER "Ian Gordon-Lennox"
FLAGS DCP
INDEX 01 00:00:00
TRACK 06 AUDIO
TITLE "Little Man's World "
PERFORMER "Ian Gordon-Lennox"
FLAGS DCP
INDEX 00 04:29:16
FILE "06 - Little Man's World.wav" WAVE
INDEX 01 00:00:00
TRACK 07 AUDIO
TITLE "Ballade - Les Nuits difficiles"
PERFORMER "Ian Gordon-Lennox"
FLAGS DCP
INDEX 00 06:18:36
FILE "07 - Ballade - Les Nuits difficiles.wav" WAVE
INDEX 01 00:00:00
TRACK 08 AUDIO
TITLE "Jazzy-Go-Lucky"
PERFORMER "Ian Gordon-Lennox"
FLAGS DCP
INDEX 00 08:01:15
FILE "08 - Jazzy-Go-Lucky.wav" WAVE
INDEX 01 00:00:00
TRACK 09 AUDIO
TITLE "Sushila"
PERFORMER "Ian Gordon-Lennox"
FLAGS DCP
INDEX 00 06:45:73
FILE "09 - Sushila.wav" WAVE
INDEX 01 00:00:00
TRACK 10 AUDIO
TITLE "Babar Brass"
PERFORMER "Ian Gordon-Lennox"
FLAGS DCP
INDEX 00 04:51:31
FILE "10 - Babar Brass.wav" WAVE
INDEX 01 00:00:00
Any questions -> support@pro-jazz.com. По всем вопросам пишите -> support@pro-jazz.com
15:47
177
Нет комментариев. Ваш будет первым!