Вы используете незарегистрированную версию компонента "Вкладки"!

Поиск

(Free Jazz) The Thing (Mats Gustafsson, Ingebrigt Haker Flaten, Paal Nilssen-Love) - Boot! - 2013, FLAC (tracks+.cue), lossless

(Free Jazz) The Thing (Mats Gustafsson, Ingebrigt Haker Flaten, Paal Nilssen-Love) - Boot! - 2013, FLAC (tracks+.cue), lossless
Треклист:
The Thing / Boot!
Жанр: Free Jazz
Страна-производитель диска: UK
Год издания: 2013
Издатель (лейбл): The Thing Records / Trost
Номер по каталогу: TTR001CD
Аудиокодек: FLAC (*.flac)
Тип рипа: tracks+.cue
Битрейт аудио: lossless
Продолжительность: 56:08
Источник (релизер): what.cd (kivius)
Наличие сканов в содержимом раздачи: нет
Треклист:
1. India (John Coltrane ) - 6:58
2. ReBoot (The Thing) - 10:17
3. Heaven (Duke Ellington arr. Mats Gustafsson) - 9:53
4. Red River (Ingebrigt Håker Flatten ) - 7:15
5. Boot (The Thing) - 7:09
6. Epilog (The Thing) - 14:00
 
Лог создания рипа
Exact Audio Copy V1.0 beta 3 from 29. August 2011
EAC extraction logfile from 21. November 2013, 1:05
The Thing / Boot!
Used drive : TSSTcorpCDDVDW SE-208DB Adapter: 2 ID: 0
Read mode : Secure
Utilize accurate stream : Yes
Defeat audio cache : Yes
Make use of C2 pointers : No
Read offset correction : 6
Overread into Lead-In and Lead-Out : No
Fill up missing offset samples with silence : Yes
Delete leading and trailing silent blocks : No
Null samples used in CRC calculations : Yes
Used interface : Native Win32 interface for Win NT & 2000
Gap handling : Appended to previous track
Used output format : User Defined Encoder
Selected bitrate : 1024 kBit/s
Quality : High
Add ID3 tag : No
Command line compressor : C:\Program Files (x86)\Exact Audio Copy\FLAC\FLAC.EXE
Additional command line options : -8 -V -T "ARTIST=%artist%" -T "TITLE=%title%" -T "ALBUM=%albumtitle%" -T "DATE=%year%" -T "TRACKNUMBER=%tracknr%" -T "GENRE=%genre%" -T "PERFORMER=%albuminterpret%" -T "COMPOSER=%composer%" %haslyrics%--tag-from-file=LYRICS="%lyricsfile%"%haslyrics% -T "ALBUMARTIST=%albumartist%" -T "DISCNUMBER=%cdnumber%" -T "TOTALDISCS=%totalcds%" -T "TOTALTRACKS=%numtracks%" -T "COMMENT=%comment%" %source% -o %dest%
TOC of the extracted CD
Track | Start | Length | Start sector | End sector
---------------------------------------------------------
1 | 0:00.00 | 6:54.46 | 0 | 31095
2 | 6:54.46 | 10:16.58 | 31096 | 77353
3 | 17:11.29 | 9:50.54 | 77354 | 121657
4 | 27:02.08 | 8:01.59 | 121658 | 157791
5 | 35:03.67 | 7:10.16 | 157792 | 190057
6 | 42:14.08 | 13:59.55 | 190058 | 253037
Track 1
Filename W:\_MUSIC ALL\The Thing - Boot (2013) [FLAC]\01. India.wav
Pre-gap length 0:00:02.00
Peak level 98.8 %
Extraction speed 1.1 X
Track quality 100.0 %
Test CRC BEDE4F8B
Copy CRC BEDE4F8B
Track not present in AccurateRip database
Copy OK
Track 2
Filename W:\_MUSIC ALL\The Thing - Boot (2013) [FLAC]\02. Reboot.wav
Pre-gap length 0:00:01.01
Peak level 98.8 %
Extraction speed 1.3 X
Track quality 100.0 %
Test CRC 2FEBC8FD
Copy CRC 2FEBC8FD
Track not present in AccurateRip database
Copy OK
Track 3
Filename W:\_MUSIC ALL\The Thing - Boot (2013) [FLAC]\03. Heaven.wav
Peak level 98.8 %
Extraction speed 1.5 X
Track quality 100.0 %
Test CRC FBA6AFDE
Copy CRC FBA6AFDE
Track not present in AccurateRip database
Copy OK
Track 4
Filename W:\_MUSIC ALL\The Thing - Boot (2013) [FLAC]\04. Red River.wav
Peak level 98.8 %
Extraction speed 1.6 X
Track quality 100.0 %
Test CRC E9C21946
Copy CRC E9C21946
Track not present in AccurateRip database
Copy OK
Track 5
Filename W:\_MUSIC ALL\The Thing - Boot (2013) [FLAC]\05. Boot!.wav
Pre-gap length 0:00:02.38
Peak level 98.8 %
Extraction speed 1.7 X
Track quality 100.0 %
Test CRC 8438599D
Copy CRC 8438599D
Track not present in AccurateRip database
Copy OK
Track 6
Filename W:\_MUSIC ALL\The Thing - Boot (2013) [FLAC]\06. Epilogue.wav
Pre-gap length 0:00:02.22
Peak level 98.8 %
Extraction speed 1.9 X
Track quality 100.0 %
Test CRC EF513869
Copy CRC EF513869
Track not present in AccurateRip database
Copy OK
None of the tracks are present in the AccurateRip database
No errors occurred
End of status report
---- CUETools DB Plugin V2.1.3
[CTDB TOCID: .JBxwDHDkwCn9TXMGMqz5YpIkrU-] disk not present in database, Submit result: .JBxwDHDkwCn9TXMGMqz5YpIkrU- has been uploaded
==== Log checksum 72B1B1B323222664D762D7D39CDBF8A353F6D380D930FA5421824AA42AC31572 ====
 
Содержание индексной карты (.CUE)
REM GENRE Jazz
REM DATE 2013
REM DISCID 390D2D06
REM COMMENT "ExactAudioCopy v1.0b3"
CATALOG 9120036681279
PERFORMER "The Thing"
TITLE "Boot!"
FILE "01. India.wav" WAVE
TRACK 01 AUDIO
TITLE "India"
PERFORMER "The Thing"
ISRC ATD411307001
INDEX 01 00:00:00
TRACK 02 AUDIO
TITLE "Reboot"
PERFORMER "The Thing"
ISRC ATD411307002
INDEX 00 06:53:45
FILE "02. Reboot.wav" WAVE
INDEX 01 00:00:00
FILE "03. Heaven.wav" WAVE
TRACK 03 AUDIO
TITLE "Heaven"
PERFORMER "The Thing"
ISRC ATD411307003
INDEX 01 00:00:00
FILE "04. Red River.wav" WAVE
TRACK 04 AUDIO
TITLE "Red River"
PERFORMER "The Thing"
ISRC ATD411307004
INDEX 01 00:00:00
TRACK 05 AUDIO
TITLE "Boot!"
PERFORMER "The Thing"
ISRC ATD411307005
INDEX 00 07:59:30
FILE "05. Boot!.wav" WAVE
INDEX 01 00:00:00
TRACK 06 AUDIO
TITLE "Epilogue"
PERFORMER "The Thing"
ISRC ATD411307006
INDEX 00 07:07:74
FILE "06. Epilogue.wav" WAVE
INDEX 01 00:00:00
 
Доп. информация
Recorded February 11- 13th 2013 by Martin Siewert at Grand Sport studio, Oslo
 
Об альбоме (сборнике)
Scandinavian improv trio the Thing (saxist Mats Gustafsson, bassist Ingebrigt Haker Flaten and drummer Paal Nilssen-Love) have released a string of albums and played hundreds of gigs worldwide in joyous defiance of the idea that raw noise and indifference to careful planning are inimical to music-making. Last year, alongside former pop singer and Brit award-winner Neneh Cherry, they created an inspired brew of experimental pop and sax-wailing ferocity, and though this studio set for the core band doesn't stray as close to familiar song-shapes, the Thing always suggest storylines and melody even at their most merciless – the result of orthodox-music experience deep enough to generate a rich deconstructivist palette. Gustafsson charges into the opener with maddened-elephant bass-saxophone grunts over the wonderful Nilssen-Love's crunching rock drumming, Reboot is a tonally contrasting episode of dissonant whistles and high-pitched snarls over a speeding-train snare-drum pulse, and the frantic Red River is a percussion tour de force. The Thing are an invigorating restorative rather than a regular diet, but long may they flourish. ~ john fordham, theguardian.com, 14 november 2013
Saxophonist Mats Gustafsson, bassist Ingebrigt Håker Flaten, and drummer Paal Nilssen-Love, the Scandinavian trio collectively known as The Thing, create pummeling free jazz full of rock fury and noise destruction that still honors the jazz tradition from which it arose. The visceral results of this interdisciplinary skill (like 2009′s sublime Bag It!) have made them one of the best-regarded jazz outfits in the world. They continue to live up to that reputation with Boot! (their first release on their newly formed The Thing Records), a set that opens with Coltrane-gone-punk and never looks back. That opener, a take on Impressions‘ ”India”, rides on Gustafsson’s iterations of the tune’s head, his honked baritone sax menacing where Coltrane’s soprano had fluttered. The track also establishes Håker Flaten’s use of distorted electric bass throughout the record, a scuzzy gravel layer under Nilssen-Love’s shuddering, constant fills. After burning things down, they “Reboot”, a tom raga and quick slices of bass swaying mystically in a darkly mellow counterpoint to the tectonics that came just before. The track cycles for seven minutes as the drums fill more and more space, pieces of bass stitched together with a double-time clap for the ecstatic conclusion to the ritual. The bass and baritone sax link for the circling theme of Duke Ellington’s “Heaven”, scattershot cymbal hiss and rattle fuzzing the edges. The Thing turn the Sacred Concert staple into a droning exploration. Håker Flaten pushes those familiar notes in quick succession, as Gustafsson delivers runs that range from bass rumble to aching squeal. The 14-minute “Epilog” is a free jazz deep sea dive, Nilssen-Love’s muscly snare rolls rippling over the slow two-step sax theme. Much like the one on the album’s cover, the trio flex their muscles on Boot!, covering even the relatively low-key moments in a thick, rocky mantle. While it may not have the varied atmospheres of their best records, sheer strength has always been one of the most effective tools in The Thing’s arsenal. The trio fuse jazz classics and their own noisy improvisation with brute force here, never lacking for unified vision or deep subtlety. ~ adam kivel, consequenceofsound.net, november 11, 2013
Somebody should inform the members of the Scandinavian free jazz trio The Thing they are not rock stars. I repeat, somebody tell saxophonist Mats Gustafsson, bassist Ingebrigt Haker Flaten and drummer Paal Nilssen-Love, you are not lizard kings. The release of Boot!, their sixth studio album since forming in 1999, is a follow-up to the widely celebrated session The Cherry Thing (Smalltown Supersound, 2012) with Neneh Cherry. The band has also collaborated with the likes of Thurston Moore, Joe McPhee, Cato Salsa Experience, Otomo Yoshihide, Ken Vandermark, and Jim O'Rourke. Their garage band genesis was a tribute to the music of Don Cherry, but they quickly expanded into the a free jazz punk esthetic, covering music by The Stooges, Albert Ayler, PJ Harvey, Ornette Coleman, Led Zeppelin, The White Stripes, and James Blood Ulmer. Boot! opens with an allegedly sacrilegious version of John Coltrane's "India" that becomes sacred. With Gustafsson blasting overblown notes from his baritone saxophone, the Indian Vedic chants and religious music Coltrane modeled his Indian drone sound from is infused with the electric of Håker Flaten's plugged-in bass and Nilssen-Love's drumming that is more Keith Moon than Elvin Jones. Trane's rapture is duplicated in a punk-garage euphoria. Coltrane's music is also hinted at with the title track. The slow burn of "Boot!" finds tenor saxophone tracking the Håker Flaten's bass guitar, which is applied as more guitar than bass, to resemble "Psalm" from A Love Supreme (Impulse!, 1965). Elsewhere, they remake Duke Ellington's "Heaven" into a slow-burning ballad with a churning undertone of pounding drums and thunderous bass. "Red River" draws from the heavy blues rock of Black Sabbath, fusing rock and free jazz into a liberating energy of sound. These three musicians are, to be sure, rock stars. Ones that can also make Duke and Coltrane smile. ~ mark corroto, allaboutjazz.com, november 18, 2013
 
Состав
Mats Gustafsson – soprano, tenor, baritone and bass saxophones
Ingebrigt Håker Flaten – electric bass
Paal Nilssen-Love – drums
Any questions -> support@pro-jazz.com. По всем вопросам пишите -> support@pro-jazz.com
20:52
127
Нет комментариев. Ваш будет первым!