Вы используете незарегистрированную версию компонента "Вкладки"!

Поиск

(Contemporary Jazz, Plainisphare) AL 4 AS (Stefano Saccon, Maurizio Bionda, Yvan Ischer, Christian Gavillet) - Rapcatraz - 1996, FLAC (tracks+.cue), lossless

(Contemporary Jazz, Plainisphare) AL 4 AS (Stefano Saccon, Maurizio Bionda, Yvan Ischer, Christian Gavillet) - Rapcatraz - 1996, FLAC (tracks+.cue), lossless
Треклист:
AL 4 AS / Rapcatraz
Жанр: Contemporary Jazz, Plainisphare
Страна-производитель диска: Switzerland
Год издания: 1996
Издатель (лейбл): Plainisphare
Номер по каталогу: PL 1267-103
Аудиокодек: FLAC (*.flac)
Тип рипа: tracks+.cue
Битрейт аудио: lossless
Продолжительность: 1:03:53
Источник (релизер): я
Наличие сканов в содержимом раздачи: нет
Треклист:
01. Mister Jo (Christian Gavillet) 4:51
02. Plenty Stray-Heart (Christian Gavillet) 6:44
03. Le Vieil Homme (Christian Gavillet) 3:40
04. You Just Forget (Christian Gavillet) 3:07
05. You (Yvan Ischer) 3:30
06. Tango (A. Auberson) 5:07
07. Part 5 (Christian Gavillet) 4:01
08. Merlin (Stefano Saccon) 6:16
09. A cappella (Christian Gavillet) 9:09
10. Stella’s Song (Christian Gavillet / Yvan Ischer) 3:27
11. Rapcatraz (Christian Gavillet / Yvan Ischer) 7:58
12. Prosper (V. Scotto) 2:57
13. Rapcatraz (short take) (Christian Gavillet / Yvan Ischer) 3:06
Enregistré au Chorus, Lausanne, avril 1996.
Stefano Saccon – saxophones alto & soprano
Maurizio Bionda – saxophone alto & clarinette
Yvan Ischer – saxophones ténor & soprano
Christian Gavillet – saxophone baryton & clarinette basse
 
Лог создания рипа
Exact Audio Copy V1.0 beta 3 from 29. August 2011
EAC extraction logfile from 3. November 2013, 15:31
AL 4 AS / Rapcatraz
Used drive : SlimtypeeNAU508 5 Adapter: 1 ID: 0
Read mode : Secure
Utilize accurate stream : Yes
Defeat audio cache : Yes
Make use of C2 pointers : No
Read offset correction : 6
Overread into Lead-In and Lead-Out : No
Fill up missing offset samples with silence : Yes
Delete leading and trailing silent blocks : No
Null samples used in CRC calculations : Yes
Used interface : Native Win32 interface for Win NT & 2000
Gap handling : Appended to previous track
Used output format : User Defined Encoder
Selected bitrate : 768 kBit/s
Quality : High
Add ID3 tag : No
Command line compressor : C:\Program Files (x86)\Exact Audio Copy\Flac\flac.exe
Additional command line options : -8 -V -T "ARTIST=%artist%" -T "TITLE=%title%" -T "ALBUM=%albumtitle%" -T "DATE=%year%" -T "TRACKNUMBER=%tracknr%" -T "GENRE=%genre%" -T "PERFORMER=%albuminterpret%" -T "COMPOSER=%composer%" %haslyrics%--tag-from-file=LYRICS="%lyricsfile%"%haslyrics% -T "ALBUMARTIST=%albumartist%" -T "DISCNUMBER=%cdnumber%" -T "TOTALDISCS=%totalcds%" -T "TOTALTRACKS=%numtracks%" -T "COMMENT=%comment%" %source% -o %dest%
TOC of the extracted CD
Track | Start | Length | Start sector | End sector
---------------------------------------------------------
1 | 0:00.30 | 4:50.41 | 30 | 21820
2 | 4:50.71 | 6:44.24 | 21821 | 52144
3 | 11:35.20 | 3:40.13 | 52145 | 68657
4 | 15:15.33 | 3:06.52 | 68658 | 82659
5 | 18:22.10 | 3:30.02 | 82660 | 98411
6 | 21:52.12 | 5:07.26 | 98412 | 121462
7 | 26:59.38 | 4:01.33 | 121463 | 139570
8 | 31:00.71 | 6:16.04 | 139571 | 167774
9 | 37:17.00 | 9:09.06 | 167775 | 208955
10 | 46:26.06 | 3:26.62 | 208956 | 224467
11 | 49:52.68 | 7:57.40 | 224468 | 260282
12 | 57:50.33 | 2:57.32 | 260283 | 273589
13 | 60:47.65 | 3:05.53 | 273590 | 287517
Track 1
Filename C:\EAC rips\01 - Mister Jo.wav
Pre-gap length 0:00:02.30
Peak level 97.6 %
Extraction speed 1.2 X
Track quality 100.0 %
Test CRC 5B7DED3C
Copy CRC 5B7DED3C
Track not present in AccurateRip database
Copy OK
Track 2
Filename C:\EAC rips\02 - Plenty Stray-Heart.wav
Peak level 86.3 %
Extraction speed 1.4 X
Track quality 100.0 %
Test CRC AAD296AC
Copy CRC AAD296AC
Track not present in AccurateRip database
Copy OK
Track 3
Filename C:\EAC rips\03 - Le Vieil Homme.wav
Peak level 98.0 %
Extraction speed 1.5 X
Track quality 100.0 %
Test CRC FFE08D10
Copy CRC FFE08D10
Track not present in AccurateRip database
Copy OK
Track 4
Filename C:\EAC rips\04 - You Just Forget.wav
Peak level 91.0 %
Extraction speed 1.5 X
Track quality 100.0 %
Test CRC 97831B29
Copy CRC 97831B29
Track not present in AccurateRip database
Copy OK
Track 5
Filename C:\EAC rips\05 - You.wav
Peak level 82.7 %
Extraction speed 1.6 X
Track quality 100.0 %
Test CRC 0F358333
Copy CRC 0F358333
Track not present in AccurateRip database
Copy OK
Track 6
Filename C:\EAC rips\06 - Tango.wav
Peak level 96.5 %
Extraction speed 1.8 X
Track quality 100.0 %
Test CRC EBE4077C
Copy CRC EBE4077C
Track not present in AccurateRip database
Copy OK
Track 7
Filename C:\EAC rips\07 - Part 5.wav
Peak level 92.7 %
Extraction speed 1.8 X
Track quality 100.0 %
Test CRC A2391A29
Copy CRC A2391A29
Track not present in AccurateRip database
Copy OK
Track 8
Filename C:\EAC rips\08 - Merlin.wav
Peak level 97.6 %
Extraction speed 2.0 X
Track quality 100.0 %
Test CRC 51A1529B
Copy CRC 51A1529B
Track not present in AccurateRip database
Copy OK
Track 9
Filename C:\EAC rips\09 - A Cappella.wav
Peak level 97.7 %
Extraction speed 2.2 X
Track quality 100.0 %
Test CRC A73DA1D7
Copy CRC A73DA1D7
Track not present in AccurateRip database
Copy OK
Track 10
Filename C:\EAC rips\10 - Stella's Song.wav
Peak level 34.1 %
Extraction speed 1.8 X
Track quality 99.9 %
Test CRC 4A869FA9
Copy CRC 4A869FA9
Track not present in AccurateRip database
Copy OK
Track 11
Filename C:\EAC rips\11 - Rapcatraz.wav
Peak level 69.8 %
Extraction speed 2.4 X
Track quality 100.0 %
Test CRC 637DD09E
Copy CRC 637DD09E
Track not present in AccurateRip database
Copy OK
Track 12
Filename C:\EAC rips\12 - Prosper.wav
Peak level 94.5 %
Extraction speed 2.2 X
Track quality 100.0 %
Test CRC 103A0A01
Copy CRC 103A0A01
Track not present in AccurateRip database
Copy OK
Track 13
Filename C:\EAC rips\13 - Rapcatraz (short take).wav
Peak level 69.8 %
Extraction speed 2.3 X
Track quality 100.0 %
Test CRC 4BF6CD66
Copy CRC 4BF6CD66
Track not present in AccurateRip database
Copy OK
None of the tracks are present in the AccurateRip database
No errors occurred
End of status report
---- CUETools DB Plugin V2.1.4
[CTDB TOCID: RcHRnA3pnXVkokT2eikhARKE5yY-] disk not present in database
Submit result: RcHRnA3pnXVkokT2eikhARKE5yY- has been uploaded
==== Log checksum 820F71F253F3F00982151B61C54E3AFC84AAB24DAC06934D349B1AA29D6BA8A1 ====
 
Содержание индексной карты (.CUE)
REM GENRE Jazz
REM DATE 1996
REM DISCID C70EF90D
REM COMMENT "ExactAudioCopy v1.0b3"
PERFORMER "AL 4 AS"
TITLE "Rapcatraz"
FILE "01 - Mister Jo.wav" WAVE
TRACK 01 AUDIO
TITLE "Mister Jo"
PERFORMER "AL 4 AS"
PREGAP 00:00:30
INDEX 01 00:00:00
FILE "02 - Plenty Stray-Heart.wav" WAVE
TRACK 02 AUDIO
TITLE "Plenty Stray-Heart"
PERFORMER "AL 4 AS"
INDEX 01 00:00:00
FILE "03 - Le Vieil Homme.wav" WAVE
TRACK 03 AUDIO
TITLE "Le Vieil Homme"
PERFORMER "AL 4 AS"
INDEX 01 00:00:00
FILE "04 - You Just Forget.wav" WAVE
TRACK 04 AUDIO
TITLE "You Just Forget"
PERFORMER "AL 4 AS"
INDEX 01 00:00:00
FILE "05 - You.wav" WAVE
TRACK 05 AUDIO
TITLE "You "
PERFORMER "AL 4 AS"
INDEX 01 00:00:00
FILE "06 - Tango.wav" WAVE
TRACK 06 AUDIO
TITLE "Tango"
PERFORMER "AL 4 AS"
INDEX 01 00:00:00
FILE "07 - Part 5.wav" WAVE
TRACK 07 AUDIO
TITLE "Part 5"
PERFORMER "AL 4 AS"
INDEX 01 00:00:00
FILE "08 - Merlin.wav" WAVE
TRACK 08 AUDIO
TITLE "Merlin"
PERFORMER "AL 4 AS"
INDEX 01 00:00:00
FILE "09 - A Cappella.wav" WAVE
TRACK 09 AUDIO
TITLE "A Cappella"
PERFORMER "AL 4 AS"
INDEX 01 00:00:00
FILE "10 - Stella's Song.wav" WAVE
TRACK 10 AUDIO
TITLE "Stella's Song"
PERFORMER "AL 4 AS"
INDEX 01 00:00:00
FILE "11 - Rapcatraz.wav" WAVE
TRACK 11 AUDIO
TITLE "Rapcatraz"
PERFORMER "AL 4 AS"
INDEX 01 00:00:00
FILE "12 - Prosper.wav" WAVE
TRACK 12 AUDIO
TITLE "Prosper"
PERFORMER "AL 4 AS"
INDEX 01 00:00:00
FILE "13 - Rapcatraz (short take).wav" WAVE
TRACK 13 AUDIO
TITLE "Rapcatraz (short take)"
PERFORMER "AL 4 AS"
INDEX 01 00:00:00
По всем вопросам пишите личное сообщение пользователю M0p94ok.
20:53
148
Нет комментариев. Ваш будет первым!