Вы используете незарегистрированную версию компонента "Вкладки"!

Поиск

(Free Jazz) The Heikki Sarmanto & Serious Music Ensemble - A Boston Date - 2008, FLAC (tracks+.cue), lossless

(Free Jazz) The Heikki Sarmanto & Serious Music Ensemble - A Boston Date - 2008, FLAC (tracks+.cue), lossless
Треклист:
The Heikki Sarmanto & Serious Music Ensemble / A Boston Date
Жанр: Free Jazz
Страна-производитель диска: US
Год издания: 2008
Издатель (лейбл): Porter Records
Номер по каталогу: PRCD - 4002
Аудиокодек: FLAC (*.flac)
Тип рипа: tracks+.cue
Битрейт аудио: lossless
Продолжительность: 68:09
Источник (релизер): whatcd
Наличие сканов в содержимом раздачи: нет
Треклист:
1 Top Of The Prude 15:14
2 A Different Kind Of Smile 7:33
3 Ibiza 17:01
4 Grass Dream 10:02
5 Run 11:48
6 MC 6:28
 
Лог создания рипа
Exact Audio Copy V1.0 beta 2 from 29. April 2011
EAC extraction logfile from 30. August 2012, 21:53
Heikki Sarmanto Serious Music Ensemble / A Boston Date
Used drive : TSSTcorpCDDVDW SH-S223L Adapter: 1 ID: 1
Read mode : Secure
Utilize accurate stream : Yes
Defeat audio cache : Yes
Make use of C2 pointers : No
Read offset correction : 6
Overread into Lead-In and Lead-Out : No
Fill up missing offset samples with silence : Yes
Delete leading and trailing silent blocks : No
Null samples used in CRC calculations : Yes
Used interface : Native Win32 interface for Win NT & 2000
Gap handling : Appended to previous track
Used output format : User Defined Encoder
Selected bitrate : 896 kBit/s
Quality : High
Add ID3 tag : No
Command line compressor : C:\Program Files (x86)\Exact Audio Copy\Flac\flac.exe
Additional command line options : -8 -V -T "ARTIST=%artist%" -T "TITLE=%title%" -T "ALBUM=%albumtitle%" -T "DATE=%year%" -T "TRACKNUMBER=%tracknr%" -T "GENRE=%genre%" -T "PERFORMER=%albuminterpret%" -T "COMPOSER=%composer%" %haslyrics%--tag-from-file=LYRIC
TOC of the extracted CD
Track | Start | Length | Start sector | End sector
---------------------------------------------------------
1 | 0:00.00 | 15:14.13 | 0 | 68562
2 | 15:14.13 | 7:33.57 | 68563 | 102594
3 | 22:47.70 | 17:01.62 | 102595 | 179231
4 | 39:49.57 | 10:02.31 | 179232 | 224412
5 | 49:52.13 | 11:48.42 | 224413 | 277554
6 | 61:40.55 | 6:28.65 | 277555 | 306719
Track 1
Filename M:\Music\What 5\Heikki Sarmanto Serious Music Ensemble - A Boston Date (2008) [FLAC]\01 - Top of the Prude.wav
Pre-gap length 0:00:02.00
Peak level 87.4 %
Extraction speed 3.2 X
Track quality 100.0 %
Test CRC 19B1C4A1
Copy CRC 19B1C4A1
Track not present in AccurateRip database
Copy OK
Track 2
Filename M:\Music\What 5\Heikki Sarmanto Serious Music Ensemble - A Boston Date (2008) [FLAC]\02 - A Different Kind of Smile.wav
Peak level 85.0 %
Extraction speed 5.0 X
Track quality 100.0 %
Test CRC 1C5AB3D9
Copy CRC 1C5AB3D9
Track not present in AccurateRip database
Copy OK
Track 3
Filename M:\Music\What 5\Heikki Sarmanto Serious Music Ensemble - A Boston Date (2008) [FLAC]\03 - Ibiza.wav
Peak level 84.2 %
Extraction speed 6.1 X
Track quality 100.0 %
Test CRC 06CB7FFF
Copy CRC 06CB7FFF
Track not present in AccurateRip database
Copy OK
Track 4
Filename M:\Music\What 5\Heikki Sarmanto Serious Music Ensemble - A Boston Date (2008) [FLAC]\04 - Grass Dream.wav
Peak level 76.4 %
Extraction speed 6.7 X
Track quality 100.0 %
Test CRC EFA16070
Copy CRC EFA16070
Track not present in AccurateRip database
Copy OK
Track 5
Filename M:\Music\What 5\Heikki Sarmanto Serious Music Ensemble - A Boston Date (2008) [FLAC]\05 - Run.wav
Peak level 95.8 %
Extraction speed 7.3 X
Track quality 100.0 %
Test CRC EC1BF950
Copy CRC EC1BF950
Track not present in AccurateRip database
Copy OK
Track 6
Filename M:\Music\What 5\Heikki Sarmanto Serious Music Ensemble - A Boston Date (2008) [FLAC]\06 - MC.wav
Peak level 87.5 %
Extraction speed 7.4 X
Track quality 100.0 %
Test CRC 79FB8AD7
Copy CRC 79FB8AD7
Track not present in AccurateRip database
Copy OK
None of the tracks are present in the AccurateRip database
No errors occurred
End of status report
==== Log checksum 3CFFCB82B2FA732EADD4DEB989C251F56275136AF7B652EB9FDE24DCF5B80E01 ====
 
Содержание индексной карты (.CUE)
REM GENRE Jazz
REM DATE 2008
REM DISCID 580FF906
REM COMMENT "ExactAudioCopy v1.0b2"
PERFORMER "Heikki Sarmanto Serious Music Ensemble"
TITLE "A Boston Date"
FILE "01 - Top of the Prude.wav" WAVE
TRACK 01 AUDIO
TITLE "Top of the Prude"
PERFORMER "Heikki Sarmanto Serious Music Ensemble"
INDEX 01 00:00:00
FILE "02 - A Different Kind of Smile.wav" WAVE
TRACK 02 AUDIO
TITLE "A Different Kind of Smile"
PERFORMER "Heikki Sarmanto Serious Music Ensemble"
INDEX 01 00:00:00
FILE "03 - Ibiza.wav" WAVE
TRACK 03 AUDIO
TITLE "Ibiza"
PERFORMER "Heikki Sarmanto Serious Music Ensemble"
INDEX 01 00:00:00
FILE "04 - Grass Dream.wav" WAVE
TRACK 04 AUDIO
TITLE "Grass Dream"
PERFORMER "Heikki Sarmanto Serious Music Ensemble"
INDEX 01 00:00:00
FILE "05 - Run.wav" WAVE
TRACK 05 AUDIO
TITLE "Run"
PERFORMER "Heikki Sarmanto Serious Music Ensemble"
INDEX 01 00:00:00
FILE "06 - MC.wav" WAVE
TRACK 06 AUDIO
TITLE "MC"
PERFORMER "Heikki Sarmanto Serious Music Ensemble"
INDEX 01 00:00:00
 
Об альбоме (сборнике)
THOUGH MOSTLY KNOWN (IF AT ALL STATESIDE) TODAY FOR HIS JAZZ-CHORAL AND OPERATIC PERSUASIONS, FINNISH PIANIST-COMPOSER HEIKKI SARMANTO SPENT 1968-1971 IN BOSTON STUDYING AT BERKLEE AND ENGAGING THE CREAM OF THE LOCAL MUSICIANS’ CROP IN WHAT WOULD BE THE SERIOUS MUSIC ENSEMBLE. IN BETWEEN DATES FOR FINNISH EMI (WHICH PORTER RECORDS WILL ALSO BE REISSUING), SARMANTO CUT OVER AN HOUR’S WORTH OF IMPROVISATION WITH SOON-TO-BE COHORTS IN BOSTON IN DECEMBER 1970. HE’S JOINED HERE BY REGULAR FOIL, SAXOPHONIST JUHANI AALTONEN, LOCAL DRUMMER CRAIG HERNDON AND GUITARIST LANCE GUNDERSON (WHO WOULD ALSO FORM THE NUCLEUS OF THE SME), AND CZECH BASSIST GEORGE MRAZ, WHO WAS AT THE TIME ALSO AT BERKELEE. THE SET IS COMPRISED OF SIX ORIGINALS, MOSTLY SEGUED FROM ONE TO THE NEXT.
AFTER A SERIES OF BRIEF TENOR-PIANO FLOURISHES ON “TOP OF THE PRUDE” THAT ALLOW AALTONEN’S THROATY HOWL TO GET A LITTLE ROOM, SARMANTO IS OFF AT A RUN ATOP THE RHYTHM SECTION’S LOOSE CLIP. SARMANTO IS A LITTLE HARD TO FIGURE IN TERMS OF WHERE HE’S COMING FROM, THOUGH PAUL BLEY AND FELLOW BERKLEE-ITE KEITH JARRETT WOULDN’T BE UNAPT COMPARISONS FOR HOW HE MATES FLORIDNESS WITH BLUESY TURNAROUNDS. LUSH ARPEGGIOS AND CLANGING ZIGGURATS OF INSTANTANEOUS SACREDNESS CHARACTERIZE HIS APPROACH WITH A KEEN SENSE OF ARCHITECTURE. AS HERNDON AND MRAZ SHADE AROUND THEM, SARMANTO AND GUNDERSON DEVELOP A CURIOUS DIALOGUE OF SCUMBLED BLUES AND ERUDITE CHORDS. THERE’S A BRIEF TENOR SPOT BEFORE MRAZ’ ENGINE GETS TO STRETCH AMID RATTLES AND PLINKS. A RESTATEMENT OF THE THEME LEADS INTO THE PENSIVE BALLAD “A DIFFERENT KIND OF SMILE,” AALTONEN ROUGH-HEWN AND SKRONKY WITH MULTIPHONICS AT THE READY, IMBUING THE ENSEMBLE'S LANGUID GLASSINESS WITH A HIGH DEGREE OF TENSION.
IN ADDITION TO SARMANTO, AALTONEN’S HORNS HAVE GRACED HEAVY FREE PLATTERS BY PETER BROTZMANN (THE INFAMOUS 1972 DATE HOT LOTTA, ON BLUE MASTER) AND COUNTRYMAN, DRUMMER EDWARD VESALA. WHILE HIS TONE ISN’T EXACTLY REIGNED IN ANYWHERE ON THIS DISC, THE INTROSPECTIVE OPENNESS PROVIDED BY SARMANTO’S COMPOSITIONS CLEARLY GIVES HIS SANDBLASTED MUSE ANOTHER QUALITY. THOUGH THE SET WEIGHS HEAVILY ON THE LEADER'S ROMANTIC POSTBOP AND INTERPLAY WITH GUNDERSON, AALTONEN'S UNBRIDLED TENOR IS USED MUCH THE WAY AS GATO BARBIERI WAS ON ALAN SHORTER'S ORGASM (VERVE, 1968) - AS A SHORT-BURST TEXTURAL FOIL. AALTONEN IS SPOTLIGHTED ON "RUN" AND THE CENTERPIECE "IBIZA," WHERE HIS RAW, REEDY HOWLS PURIFY UNACCOMPANIED AROUND THE ELEVEN-MINUTE MARK. HIS SOLO FOLLOWS THE GUITARIST’S BLUES-ROCK FUEL AS GUNDERSON UPENDS AND INVIGORATES PIANISTIC POISE WITH CRYSTALLINE FRETWORK.
THOUGH SKETCHILY OUTLINED HERE, ONE CAN MAKE OUT THE SYMPHONIC FRAMEWORK THAT HAS BEEN THE BASIS FOR SARMANTO’S WORK SINCE, THE GOSPELIZED ODES AND LIGHT-FILLED MASSES AT THIS EARLY STAGE COUCHED IN DUSKY SMALL-GROUP ANGLES. WHILE THE GROUP CONTINUED ON IN FINLAND, A BOSTON DATE PROVIDES A VALUABLE WINDOW INTO THE BEGINNINGS OF THEIR INTER-CONTINENTAL AND HIGHLY ORDERED COLLABORATION.
 
Состав
HEIKKI SARMANTO - PIANO
CRAIG HERNDON - DRUMS
LANCE GUNDERSON - GUITAR
JUHANI AALTONEN - SAXOPHONE
GEORGE MRAZ - BASS
Any questions -> support@pro-jazz.com. По всем вопросам пишите -> support@pro-jazz.com
03:31
121
Нет комментариев. Ваш будет первым!