Вы используете незарегистрированную версию компонента "Вкладки"!

Поиск

(Free Improvisation) Hepa Halme, Mikko Innanen, Teemu Korpipaa - Piknik - 2011, FLAC (tracks+.cue), lossless

(Free Improvisation) Hepa Halme, Mikko Innanen, Teemu Korpipaa - Piknik - 2011, FLAC (tracks+.cue), lossless
Треклист:
Halme, Innanen, Korpipää / Piknik
Жанр: Free Improvisation
Страна-производитель диска: Finland
Год издания: 2011
Издатель (лейбл): Fiasko Records
Номер по каталогу: FRCD-53
Аудиокодек: FLAC (*.flac)
Тип рипа: tracks+.cue
Битрейт аудио: lossless
Продолжительность: 43:46
Источник (релизер): whatcd
Наличие сканов в содержимом раздачи: нет
Треклист:
1. E 124 (Halme/Innanen/Korpipaa) (0:25)
2. E 131 (Halme/Innanen/Korpipaa) (0:52)
3. E 161b (Halme/Innanen/Korpipaa) (1:57)
4. E 202 (Halme/Innanen/Korpipaa) (1:55)
5. E 235 (Halme/Innanen/Korpipaa) (1:10)
6. E 239 (Halme/Innanen/Korpipaa) (1:47)
7. E 285 (Halme/Innanen/Korpipaa) (1:26)
8. E 301 (Halme/Innanen/Korpipaa) (3:41)
9. E 319 (Halme/Innanen/Korpipaa) (5:09)
10. E 330 (Halme/Innanen/Korpipaa) (1:55)
11. E 351 (Halme/Innanen/Korpipaa) (1:05)
12. E 385 (Halme/Innanen/Korpipaa) (2:32)
13. E 401 (Halme/Innanen/Korpipaa) (2:36)
14. E 440 (Halme/Innanen/Korpipaa) (1:17)
15. E 472e (Halme/Innanen/Korpipaa) (1:59)
16. E 509 (Halme/Innanen/Korpipaa) (0:26)
17. E 553 (Halme/Innanen/Korpipaa) (0:24)
18. E 579 (Halme/Innanen/Korpipaa) (4:50)
19. E 640 (Halme/Innanen/Korpipaa) (3:59)
20. E 914 (Halme/Innanen/Korpipaa) (1:01)
21. E 1422 (Halme/Innanen/Korpipaa) (0:46)
22. E 1520 (Halme/Innanen/Korpipaa) (2:25)
 
Лог создания рипа
Exact Audio Copy V1.0 beta 2 from 29. April 2011
EAC extraction logfile from 29. August 2012, 11:57
Halme-Innanen-Korpipää / Piknik
Used drive : TSSTcorpCDDVDW SH-S223L Adapter: 1 ID: 1
Read mode : Secure
Utilize accurate stream : Yes
Defeat audio cache : Yes
Make use of C2 pointers : No
Read offset correction : 6
Overread into Lead-In and Lead-Out : No
Fill up missing offset samples with silence : Yes
Delete leading and trailing silent blocks : No
Null samples used in CRC calculations : Yes
Used interface : Native Win32 interface for Win NT & 2000
Gap handling : Appended to previous track
Used output format : User Defined Encoder
Selected bitrate : 896 kBit/s
Quality : High
Add ID3 tag : No
Command line compressor : C:\Program Files (x86)\Exact Audio Copy\Flac\flac.exe
Additional command line options : -8 -V -T "ARTIST=%artist%" -T "TITLE=%title%" -T "ALBUM=%albumtitle%" -T "DATE=%year%" -T "TRACKNUMBER=%tracknr%" -T "GENRE=%genre%" -T "PERFORMER=%albuminterpret%" -T "COMPOSER=%composer%" %haslyrics%--tag-from-file=LYRIC
TOC of the extracted CD
Track | Start | Length | Start sector | End sector
---------------------------------------------------------
1 | 0:00.00 | 0:25.47 | 0 | 1921
2 | 0:25.47 | 0:52.33 | 1922 | 5854
3 | 1:18.05 | 1:57.19 | 5855 | 14648
4 | 3:15.24 | 1:55.41 | 14649 | 23314
5 | 5:10.65 | 1:10.55 | 23315 | 28619
6 | 6:21.45 | 1:47.14 | 28620 | 36658
7 | 8:08.59 | 1:26.59 | 36659 | 43167
8 | 9:35.43 | 3:41.37 | 43168 | 59779
9 | 13:17.05 | 5:09.09 | 59780 | 82963
10 | 18:26.14 | 1:55.11 | 82964 | 91599
11 | 20:21.25 | 1:05.58 | 91600 | 96532
12 | 21:27.08 | 2:32.65 | 96533 | 107997
13 | 23:59.73 | 2:36.20 | 107998 | 119717
14 | 26:36.18 | 1:17.14 | 119718 | 125506
15 | 27:53.32 | 1:59.06 | 125507 | 134437
16 | 29:52.38 | 0:26.59 | 134438 | 136446
17 | 30:19.22 | 0:24.03 | 136447 | 138249
18 | 30:43.25 | 4:50.68 | 138250 | 160067
19 | 35:34.18 | 3:59.58 | 160068 | 178050
20 | 39:34.01 | 1:01.16 | 178051 | 182641
21 | 40:35.17 | 0:46.01 | 182642 | 186092
22 | 41:21.18 | 2:25.01 | 186093 | 196968
Track 1
Filename M:\Music\What 5\Halme-Innanen-Korpipää - Piknik (2011) [FLAC]\01 - E 124.wav
Pre-gap length 0:00:02.00
Peak level 74.7 %
Extraction speed 1.9 X
Track quality 100.0 %
Test CRC B8BE35F7
Copy CRC B8BE35F7
Track not present in AccurateRip database
Copy OK
Track 2
Filename M:\Music\What 5\Halme-Innanen-Korpipää - Piknik (2011) [FLAC]\02 - E 131.wav
Peak level 98.6 %
Extraction speed 1.6 X
Track quality 99.7 %
Test CRC 32D99B25
Copy CRC 32D99B25
Track not present in AccurateRip database
Copy OK
Track 3
Filename M:\Music\What 5\Halme-Innanen-Korpipää - Piknik (2011) [FLAC]\03 - E 161b.wav
Peak level 98.6 %
Extraction speed 3.8 X
Track quality 100.0 %
Test CRC D9251F3B
Copy CRC D9251F3B
Track not present in AccurateRip database
Copy OK
Track 4
Filename M:\Music\What 5\Halme-Innanen-Korpipää - Piknik (2011) [FLAC]\04 - E 202.wav
Peak level 98.6 %
Extraction speed 2.8 X
Track quality 99.9 %
Test CRC B2693269
Copy CRC B2693269
Track not present in AccurateRip database
Copy OK
Track 5
Filename M:\Music\What 5\Halme-Innanen-Korpipää - Piknik (2011) [FLAC]\05 - E 235.wav
Peak level 98.6 %
Extraction speed 2.1 X
Track quality 99.8 %
Test CRC 94480F06
Copy CRC 94480F06
Track not present in AccurateRip database
Copy OK
Track 6
Filename M:\Music\What 5\Halme-Innanen-Korpipää - Piknik (2011) [FLAC]\06 - E 239.wav
Peak level 98.6 %
Extraction speed 2.8 X
Track quality 99.9 %
Test CRC 6BEB46DA
Copy CRC 6BEB46DA
Track not present in AccurateRip database
Copy OK
Track 7
Filename M:\Music\What 5\Halme-Innanen-Korpipää - Piknik (2011) [FLAC]\07 - E 285.wav
Peak level 98.6 %
Extraction speed 4.0 X
Track quality 100.0 %
Test CRC 0B7C0D34
Copy CRC 0B7C0D34
Track not present in AccurateRip database
Copy OK
Track 8
Filename M:\Music\What 5\Halme-Innanen-Korpipää - Piknik (2011) [FLAC]\08 - E 301.wav
Peak level 98.6 %
Extraction speed 5.4 X
Track quality 100.0 %
Test CRC 0439C763
Copy CRC 0439C763
Track not present in AccurateRip database
Copy OK
Track 9
Filename M:\Music\What 5\Halme-Innanen-Korpipää - Piknik (2011) [FLAC]\09 - E 319.wav
Peak level 98.6 %
Extraction speed 6.0 X
Track quality 100.0 %
Test CRC BDB63547
Copy CRC BDB63547
Track not present in AccurateRip database
Copy OK
Track 10
Filename M:\Music\What 5\Halme-Innanen-Korpipää - Piknik (2011) [FLAC]\10 - E 330.wav
Peak level 98.6 %
Extraction speed 5.3 X
Track quality 100.0 %
Test CRC C382853C
Copy CRC C382853C
Track not present in AccurateRip database
Copy OK
Track 11
Filename M:\Music\What 5\Halme-Innanen-Korpipää - Piknik (2011) [FLAC]\11 - E 351.wav
Peak level 98.6 %
Extraction speed 4.6 X
Track quality 100.0 %
Test CRC 7F1B4994
Copy CRC 7F1B4994
Track not present in AccurateRip database
Copy OK
Track 12
Filename M:\Music\What 5\Halme-Innanen-Korpipää - Piknik (2011) [FLAC]\12 - E 385.wav
Peak level 98.6 %
Extraction speed 6.0 X
Track quality 100.0 %
Test CRC 1CE879DE
Copy CRC 1CE879DE
Track not present in AccurateRip database
Copy OK
Track 13
Filename M:\Music\What 5\Halme-Innanen-Korpipää - Piknik (2011) [FLAC]\13 - E 401.wav
Peak level 98.6 %
Extraction speed 6.2 X
Track quality 100.0 %
Test CRC 9988DF71
Copy CRC 9988DF71
Track not present in AccurateRip database
Copy OK
Track 14
Filename M:\Music\What 5\Halme-Innanen-Korpipää - Piknik (2011) [FLAC]\14 - E 440.wav
Peak level 98.6 %
Extraction speed 5.2 X
Track quality 100.0 %
Test CRC A41FBCB3
Copy CRC A41FBCB3
Track not present in AccurateRip database
Copy OK
Track 15
Filename M:\Music\What 5\Halme-Innanen-Korpipää - Piknik (2011) [FLAC]\15 - E 472e.wav
Peak level 98.6 %
Extraction speed 6.1 X
Track quality 100.0 %
Test CRC 9D33B9FD
Copy CRC 9D33B9FD
Track not present in AccurateRip database
Copy OK
Track 16
Filename M:\Music\What 5\Halme-Innanen-Korpipää - Piknik (2011) [FLAC]\16 - E 509.wav
Peak level 98.6 %
Extraction speed 3.3 X
Track quality 100.0 %
Test CRC 11D3DCCF
Copy CRC 11D3DCCF
Track not present in AccurateRip database
Copy OK
Track 17
Filename M:\Music\What 5\Halme-Innanen-Korpipää - Piknik (2011) [FLAC]\17 - E 553.wav
Peak level 97.4 %
Extraction speed 3.1 X
Track quality 100.0 %
Test CRC 51821B6B
Copy CRC 51821B6B
Track not present in AccurateRip database
Copy OK
Track 18
Filename M:\Music\What 5\Halme-Innanen-Korpipää - Piknik (2011) [FLAC]\18 - E 579.wav
Peak level 98.6 %
Extraction speed 7.5 X
Track quality 100.0 %
Test CRC 5026EA85
Copy CRC 5026EA85
Track not present in AccurateRip database
Copy OK
Track 19
Filename M:\Music\What 5\Halme-Innanen-Korpipää - Piknik (2011) [FLAC]\19 - E 640.wav
Peak level 98.6 %
Extraction speed 7.6 X
Track quality 100.0 %
Test CRC 10F44578
Copy CRC 10F44578
Track not present in AccurateRip database
Copy OK
Track 20
Filename M:\Music\What 5\Halme-Innanen-Korpipää - Piknik (2011) [FLAC]\20 - E 914.wav
Peak level 98.6 %
Extraction speed 5.4 X
Track quality 100.0 %
Test CRC 5E352E30
Copy CRC 5E352E30
Track not present in AccurateRip database
Copy OK
Track 21
Filename M:\Music\What 5\Halme-Innanen-Korpipää - Piknik (2011) [FLAC]\21 - E 1422.wav
Peak level 98.6 %
Extraction speed 5.0 X
Track quality 100.0 %
Test CRC 80AAA1B4
Copy CRC 80AAA1B4
Track not present in AccurateRip database
Copy OK
Track 22
Filename M:\Music\What 5\Halme-Innanen-Korpipää - Piknik (2011) [FLAC]\22 - E 1520.wav
Peak level 98.6 %
Extraction speed 7.3 X
Track quality 100.0 %
Test CRC BB597689
Copy CRC BB597689
Track not present in AccurateRip database
Copy OK
None of the tracks are present in the AccurateRip database
No errors occurred
End of status report
==== Log checksum 3DF643B0C8AE351B74C241D8910DD7DE12E4693F33BA128803C4A6EF8D64320E ====
 
Содержание индексной карты (.CUE)
REM GENRE Jazz
REM DATE 2011
REM DISCID 3E0A4216
REM COMMENT "ExactAudioCopy v1.0b2"
PERFORMER "Halme-Innanen-Korpipдд"
TITLE "Piknik"
FILE "01 - E 124.wav" WAVE
TRACK 01 AUDIO
TITLE "E 124"
PERFORMER "Halme-Innanen-Korpipдд"
FLAGS DCP
INDEX 01 00:00:00
FILE "02 - E 131.wav" WAVE
TRACK 02 AUDIO
TITLE "E 131"
PERFORMER "Halme-Innanen-Korpipдд"
FLAGS DCP
INDEX 01 00:00:00
FILE "03 - E 161b.wav" WAVE
TRACK 03 AUDIO
TITLE "E 161b"
PERFORMER "Halme-Innanen-Korpipдд"
FLAGS DCP
INDEX 01 00:00:00
FILE "04 - E 202.wav" WAVE
TRACK 04 AUDIO
TITLE "E 202"
PERFORMER "Halme-Innanen-Korpipдд"
FLAGS DCP
INDEX 01 00:00:00
FILE "05 - E 235.wav" WAVE
TRACK 05 AUDIO
TITLE "E 235"
PERFORMER "Halme-Innanen-Korpipдд"
FLAGS DCP
INDEX 01 00:00:00
FILE "06 - E 239.wav" WAVE
TRACK 06 AUDIO
TITLE "E 239"
PERFORMER "Halme-Innanen-Korpipдд"
FLAGS DCP
INDEX 01 00:00:00
FILE "07 - E 285.wav" WAVE
TRACK 07 AUDIO
TITLE "E 285"
PERFORMER "Halme-Innanen-Korpipдд"
FLAGS DCP
INDEX 01 00:00:00
FILE "08 - E 301.wav" WAVE
TRACK 08 AUDIO
TITLE "E 301"
PERFORMER "Halme-Innanen-Korpipдд"
FLAGS DCP
INDEX 01 00:00:00
FILE "09 - E 319.wav" WAVE
TRACK 09 AUDIO
TITLE "E 319"
PERFORMER "Halme-Innanen-Korpipдд"
FLAGS DCP
INDEX 01 00:00:00
FILE "10 - E 330.wav" WAVE
TRACK 10 AUDIO
TITLE "E 330"
PERFORMER "Halme-Innanen-Korpipдд"
FLAGS DCP
INDEX 01 00:00:00
FILE "11 - E 351.wav" WAVE
TRACK 11 AUDIO
TITLE "E 351"
PERFORMER "Halme-Innanen-Korpipдд"
FLAGS DCP
INDEX 01 00:00:00
FILE "12 - E 385.wav" WAVE
TRACK 12 AUDIO
TITLE "E 385"
PERFORMER "Halme-Innanen-Korpipдд"
FLAGS DCP
INDEX 01 00:00:00
FILE "13 - E 401.wav" WAVE
TRACK 13 AUDIO
TITLE "E 401"
PERFORMER "Halme-Innanen-Korpipдд"
FLAGS DCP
INDEX 01 00:00:00
FILE "14 - E 440.wav" WAVE
TRACK 14 AUDIO
TITLE "E 440"
PERFORMER "Halme-Innanen-Korpipдд"
FLAGS DCP
INDEX 01 00:00:00
FILE "15 - E 472e.wav" WAVE
TRACK 15 AUDIO
TITLE "E 472e"
PERFORMER "Halme-Innanen-Korpipдд"
FLAGS DCP
INDEX 01 00:00:00
FILE "16 - E 509.wav" WAVE
TRACK 16 AUDIO
TITLE "E 509"
PERFORMER "Halme-Innanen-Korpipдд"
FLAGS DCP
INDEX 01 00:00:00
FILE "17 - E 553.wav" WAVE
TRACK 17 AUDIO
TITLE "E 553"
PERFORMER "Halme-Innanen-Korpipдд"
FLAGS DCP
INDEX 01 00:00:00
FILE "18 - E 579.wav" WAVE
TRACK 18 AUDIO
TITLE "E 579"
PERFORMER "Halme-Innanen-Korpipдд"
FLAGS DCP
INDEX 01 00:00:00
FILE "19 - E 640.wav" WAVE
TRACK 19 AUDIO
TITLE "E 640"
PERFORMER "Halme-Innanen-Korpipдд"
FLAGS DCP
INDEX 01 00:00:00
FILE "20 - E 914.wav" WAVE
TRACK 20 AUDIO
TITLE "E 914"
PERFORMER "Halme-Innanen-Korpipдд"
FLAGS DCP
INDEX 01 00:00:00
FILE "21 - E 1422.wav" WAVE
TRACK 21 AUDIO
TITLE "E 1422"
PERFORMER "Halme-Innanen-Korpipдд"
FLAGS DCP
INDEX 01 00:00:00
FILE "22 - E 1520.wav" WAVE
TRACK 22 AUDIO
TITLE "E 1520"
PERFORMER "Halme-Innanen-Korpipдд"
FLAGS DCP
INDEX 01 00:00:00
 
Состав
Hepa Halme, tenor saxophone, bass & alto flute
Mikko Innanen, alto, baritone & soprano saxophone, walkie-talkie, Uilleann pipe, Indian clarinet, xaphoon
Teemu Korpipaa, live electronics
Any questions -> support@pro-jazz.com. По всем вопросам пишите -> support@pro-jazz.com
03:32
128
Нет комментариев. Ваш будет первым!