Вы используете незарегистрированную версию компонента "Вкладки"!

Поиск

(Free Jazz) The Georg Graewe Quartet (Frank Gratkowski, Kent Kessler, Hamid Drake) - Melodie Und Rhythmus - 1997, FLAC (tracks+.cue), lossless

(Free Jazz) The Georg Graewe Quartet (Frank Gratkowski, Kent Kessler, Hamid Drake) - Melodie Und Rhythmus - 1997, FLAC (tracks+.cue), lossless
Треклист:
The Georg Gräwe Quartet - Melodie Und Rhythmus
Жанр: Free Jazz
Год выпуска диска: 1997
Производитель диска: Okka Disc (OD12024)
Источник: другой трекер (iwals)
Аудио кодек: FLAC
Тип рипа: tracks+.cue
Битрейт аудио: lossless
Продолжительность: 1:01:16
Трэклист:
1. Nodality (4:51)
2. Imaginary Portrait I (6:56)
3. Passing Scopes (7:11)
4. Trajectory (7:17)
5. Fringe Factor (11:01)
6. Multiversum (5:59)
7. Memory of Wings II (17:55)
All compositions by Drake/Gräwe/Gratkowski/Kessler
Recorded at AirWave Recording Studios, Chicago, IL, May 1997
Georg Gräwe — piano
Frank Gratkowski — reeds
Kent Kessler — bass
Hamid Drake — percussion
 
Лог создания рипа
Exact Audio Copy V0.99 prebeta 4 from 23. January 2008
EAC extraction logfile from 9. July 2008, 21:49
Georg Graewe Quartet / Melodie Und Rhythmus
Used drive : _NEC DVD_RW ND-3500AG Adapter: 2 ID: 0
Read mode : Secure
Utilize accurate stream : Yes
Defeat audio cache : Yes
Make use of C2 pointers : No
Read offset correction : 48
Overread into Lead-In and Lead-Out : No
Fill up missing offset samples with silence : Yes
Delete leading and trailing silent blocks : No
Null samples used in CRC calculations : Yes
Used interface : Native Win32 interface for Win NT & 2000
Gap handling : Appended to previous track
Used output format : Internal WAV Routines
Sample format : 44.100 Hz; 16 Bit; Stereo
TOC of the extracted CD
Track | Start | Length | Start sector | End sector
---------------------------------------------------------
1 | 0:00.00 | 4:53.45 | 0 | 22019
2 | 4:53.45 | 6:56.47 | 22020 | 53266
3 | 11:50.17 | 7:11.00 | 53267 | 85591
4 | 19:01.17 | 7:17.50 | 85592 | 118416
5 | 26:18.67 | 11:01.43 | 118417 | 168034
6 | 37:20.35 | 5:59.57 | 168035 | 195016
7 | 43:20.17 | 17:55.53 | 195017 | 275694
Track 1
Filename E:\New Rip\Georg Graewe Quartet - Melodie Und Rhythmus\01 - Nodality.wav
Pre-gap length 0:00:02.00
Peak level 77.0 %
Track quality 100.0 %
Test CRC F3559F38
Copy CRC F3559F38
Copy OK
Track 2
Filename E:\New Rip\Georg Graewe Quartet - Melodie Und Rhythmus\02 - Imaginary Portrait I.wav
Pre-gap length 0:00:03.50
Peak level 87.6 %
Track quality 100.0 %
Test CRC 148A4BCA
Copy CRC 148A4BCA
Copy OK
Track 3
Filename E:\New Rip\Georg Graewe Quartet - Melodie Und Rhythmus\03 - Passing Scopes.wav
Pre-gap length 0:00:03.49
Peak level 88.8 %
Track quality 99.9 %
Test CRC 08B8DD72
Copy CRC 08B8DD72
Copy OK
Track 4
Filename E:\New Rip\Georg Graewe Quartet - Melodie Und Rhythmus\04 - Trajectory.wav
Pre-gap length 0:00:03.49
Peak level 100.0 %
Track quality 99.9 %
Test CRC D6276038
Copy CRC D6276038
Copy OK
Track 5
Filename E:\New Rip\Georg Graewe Quartet - Melodie Und Rhythmus\05 - Fringe Factor.wav
Pre-gap length 0:00:03.49
Peak level 80.9 %
Track quality 100.0 %
Test CRC 6ABFCCA8
Copy CRC 6ABFCCA8
Copy OK
Track 6
Filename E:\New Rip\Georg Graewe Quartet - Melodie Und Rhythmus\06 - Multiversum.wav
Pre-gap length 0:00:03.50
Peak level 98.9 %
Track quality 100.0 %
Test CRC 0C744EC1
Copy CRC 0C744EC1
Copy OK
Track 7
Filename E:\New Rip\Georg Graewe Quartet - Melodie Und Rhythmus\07 - Memory Of Wings II.wav
Pre-gap length 0:00:03.49
Peak level 81.8 %
Track quality 100.0 %
Test CRC 309576F8
Copy CRC 309576F8
Copy OK
No errors occurred
End of status report
 
Содержание индексной карты (.CUE)
REM GENRE Jazz
REM DATE 1997
REM DISCID 470E5B07
REM COMMENT "ExactAudioCopy v0.99pb4"
PERFORMER "Georg Grдwe Quartet"
TITLE "Melodie Und Rhythmus"
FILE "01 - Nodality.wav" WAVE
TRACK 01 AUDIO
TITLE "Nodality"
PERFORMER "Georg Grдwe Quartet"
INDEX 01 00:00:00
TRACK 02 AUDIO
TITLE "Imaginary Portrait I"
PERFORMER "Georg Grдwe Quartet"
INDEX 00 04:50:07
FILE "02 - Imaginary Portrait I.wav" WAVE
INDEX 01 00:00:00
TRACK 03 AUDIO
TITLE "Passing Scopes"
PERFORMER "Georg Grдwe Quartet"
INDEX 00 06:53:10
FILE "03 - Passing Scopes.wav" WAVE
INDEX 01 00:00:00
TRACK 04 AUDIO
TITLE "Trajectory"
PERFORMER "Georg Grдwe Quartet"
INDEX 00 07:07:38
FILE "04 - Trajectory.wav" WAVE
INDEX 01 00:00:00
TRACK 05 AUDIO
TITLE "Fringe Factor"
PERFORMER "Georg Grдwe Quartet"
INDEX 00 07:14:13
FILE "05 - Fringe Factor.wav" WAVE
INDEX 01 00:00:00
TRACK 06 AUDIO
TITLE "Multiversum"
PERFORMER "Georg Grдwe Quartet"
INDEX 00 10:58:05
FILE "06 - Multiversum.wav" WAVE
INDEX 01 00:00:00
TRACK 07 AUDIO
TITLE "Memory Of Wings II"
PERFORMER "Georg Grдwe Quartet"
INDEX 00 05:56:20
FILE "07 - Memory Of Wings II.wav" WAVE
INDEX 01 00:00:00
 
Лог проверки качества
AUDIOCHECKER v2.0 beta (build 457) - by Dester - opdester@freemail.hu
~~~~~~~~~~~~~~~~~~~~~~~~~~~~~~~~~~
-=== DO NOT EDIT THIS FILE! ===-
Path: ...\the georg graewe quartet - 1997 - melodie und rhythmus
1 -=- 01 - Nodality.flac -=- CDDA (100%)
2 -=- 02 - Imaginary Portrait I.flac -=- CDDA (100%)
3 -=- 03 - Passing Scopes.flac -=- CDDA (100%)
4 -=- 04 - Trajectory.flac -=- CDDA (100%)
5 -=- 05 - Fringe Factor.flac -=- CDDA (99%)
6 -=- 06 - Multiversum.flac -=- CDDA (99%)
7 -=- 07 - Memory Of Wings II.flac -=- CDDA (99%)
Summary 99,57% CDDA
89293748
По всем вопросам пишите личное сообщение пользователю M0p94ok.
23:24
184
Нет комментариев. Ваш будет первым!