Поиск

(Free Improvisation) Han Bennink & Terrie Ex - The Laughing Owl - 2000, FLAC (tracks+.cue), lossless

Треклист:
Han Bennink & Terrie Ex - The Laughing Owl
Жанр: Free Improvisation
Год выпуска : 2000
Лейбл: Atavistic
Аудио кодек: FLAC
Тип рипа: tracks+.cue
Битрейт аудио: lossless
Продолжительность: 00:46:41
Рип: ReplacementDecanter - What CD


01. Kieft (1:26)
02. Demp (1:10)
03. Bims (1:05)
04. Kluft (3:26)
05. Het Spook En De Kaas (6:24)
06. Knÿt (1:52)
07. Tzwet & Tkalf (8:34)
08. Twototango (1:07)
09. Tuk (1:40)
10. Song Of The Slender Moa (2:35)
11. Fik (1:20)
12. The Lauging Owl (1:56)
13. Skots & Skeef (2:42)
14. Zeepijn (2:06)
15. Dug (3:23)
16. Glenfoÿ (4:35)
17. Taailing (1:21)

 
EAC
Exact Audio Copy V0.99 prebeta 4 from 23. January 2008
EAC extraction logfile from 29. May 2010, 23:19
Han Bennink & Terrie Ex / The Laughing Owl
Used drive : TSSTcorpCD/DVDW TS-H652L Adapter: 2 ID: 0
Read mode : Secure
Utilize accurate stream : Yes
Defeat audio cache : Yes
Make use of C2 pointers : No
Read offset correction : 6
Overread into Lead-In and Lead-Out : No
Fill up missing offset samples with silence : Yes
Delete leading and trailing silent blocks : No
Null samples used in CRC calculations : Yes
Used interface : Native Win32 interface for Win NT & 2000
Gap handling : Appended to previous track
Used output format : Internal WAV Routines
Sample format : 44.100 Hz; 16 Bit; Stereo
TOC of the extracted CD
Track | Start | Length | Start sector | End sector
---------------------------------------------------------
1 | 0:00.00 | 1:25.62 | 0 | 6436
2 | 1:25.62 | 1:09.71 | 6437 | 11682
3 | 2:35.58 | 1:04.71 | 11683 | 16553
4 | 3:40.54 | 3:25.52 | 16554 | 31980
5 | 7:06.31 | 6:24.23 | 31981 | 60803
6 | 13:30.54 | 1:52.13 | 60804 | 69216
7 | 15:22.67 | 8:33.49 | 69217 | 107740
8 | 23:56.41 | 1:07.32 | 107741 | 112797
9 | 25:03.73 | 1:39.43 | 112798 | 120265
10 | 26:43.41 | 2:34.38 | 120266 | 131853
11 | 29:18.04 | 1:19.69 | 131854 | 137847
12 | 30:37.73 | 1:55.45 | 137848 | 146517
13 | 32:33.43 | 2:41.62 | 146518 | 158654
14 | 35:15.30 | 2:06.25 | 158655 | 168129
15 | 37:21.55 | 3:23.31 | 168130 | 183385
16 | 40:45.11 | 4:35.17 | 183386 | 204027
17 | 45:20.28 | 1:20.61 | 204028 | 210088
Track 1
Filename C:\EACrips\Han Bennink & Terrie Ex - The Laughing Owl (2000) (flac)\01. Kieft.wav
Pre-gap length 0:00:02.00
Peak level 99.9 %
Track quality 100.0 %
Test CRC AC79E0D9
Copy CRC AC79E0D9
Track not present in AccurateRip database
Copy OK
Track 2
Filename C:\EACrips\Han Bennink & Terrie Ex - The Laughing Owl (2000) (flac)\02. Demp.wav
Pre-gap length 0:00:03.00
Peak level 99.9 %
Track quality 100.0 %
Test CRC 4F594690
Copy CRC 4F594690
Track not present in AccurateRip database
Copy OK
Track 3
Filename C:\EACrips\Han Bennink & Terrie Ex - The Laughing Owl (2000) (flac)\03. Bims.wav
Pre-gap length 0:00:03.00
Peak level 99.9 %
Track quality 100.0 %
Test CRC C9851640
Copy CRC C9851640
Track not present in AccurateRip database
Copy OK
Track 4
Filename C:\EACrips\Han Bennink & Terrie Ex - The Laughing Owl (2000) (flac)\04. Kluft.wav
Pre-gap length 0:00:03.00
Peak level 99.9 %
Track quality 100.0 %
Test CRC 3927125B
Copy CRC 3927125B
Track not present in AccurateRip database
Copy OK
Track 5
Filename C:\EACrips\Han Bennink & Terrie Ex - The Laughing Owl (2000) (flac)\05. Het Spook En De Kaas.wav
Pre-gap length 0:00:03.00
Peak level 99.9 %
Track quality 100.0 %
Test CRC A183001B
Copy CRC A183001B
Track not present in AccurateRip database
Copy OK
Track 6
Filename C:\EACrips\Han Bennink & Terrie Ex - The Laughing Owl (2000) (flac)\06. Knяt.wav
Pre-gap length 0:00:03.00
Peak level 99.9 %
Track quality 100.0 %
Test CRC 51864EA9
Copy CRC 51864EA9
Track not present in AccurateRip database
Copy OK
Track 7
Filename C:\EACrips\Han Bennink & Terrie Ex - The Laughing Owl (2000) (flac)\07. Tzwet & Tkalf.wav
Pre-gap length 0:00:03.00
Peak level 99.9 %
Track quality 100.0 %
Test CRC E9AD21F3
Copy CRC E9AD21F3
Track not present in AccurateRip database
Copy OK
Track 8
Filename C:\EACrips\Han Bennink & Terrie Ex - The Laughing Owl (2000) (flac)\08. Twototango.wav
Pre-gap length 0:00:03.00
Peak level 98.1 %
Track quality 99.8 %
Test CRC 1B0FBCD5
Copy CRC 1B0FBCD5
Track not present in AccurateRip database
Copy OK
Track 9
Filename C:\EACrips\Han Bennink & Terrie Ex - The Laughing Owl (2000) (flac)\09. Tuk.wav
Pre-gap length 0:00:03.00
Peak level 99.9 %
Track quality 100.0 %
Test CRC 8247949D
Copy CRC 8247949D
Track not present in AccurateRip database
Copy OK
Track 10
Filename C:\EACrips\Han Bennink & Terrie Ex - The Laughing Owl (2000) (flac)\10. Song Of The Slender Moa.wav
Pre-gap length 0:00:03.00
Peak level 99.9 %
Track quality 100.0 %
Test CRC F118952C
Copy CRC F118952C
Track not present in AccurateRip database
Copy OK
Track 11
Filename C:\EACrips\Han Bennink & Terrie Ex - The Laughing Owl (2000) (flac)\11. Fik.wav
Pre-gap length 0:00:03.00
Peak level 99.9 %
Track quality 100.0 %
Test CRC 4FC977E1
Copy CRC 4FC977E1
Track not present in AccurateRip database
Copy OK
Track 12
Filename C:\EACrips\Han Bennink & Terrie Ex - The Laughing Owl (2000) (flac)\12. The Lauging Owl.wav
Pre-gap length 0:00:03.00
Peak level 99.9 %
Track quality 100.0 %
Test CRC 199D1930
Copy CRC 199D1930
Track not present in AccurateRip database
Copy OK
Track 13
Filename C:\EACrips\Han Bennink & Terrie Ex - The Laughing Owl (2000) (flac)\13. Skots & Skeef.wav
Pre-gap length 0:00:03.00
Peak level 99.9 %
Track quality 100.0 %
Test CRC CD39A0AB
Copy CRC CD39A0AB
Track not present in AccurateRip database
Copy OK
Track 14
Filename C:\EACrips\Han Bennink & Terrie Ex - The Laughing Owl (2000) (flac)\14. Zeepijn.wav
Pre-gap length 0:00:03.00
Peak level 99.9 %
Track quality 100.0 %
Test CRC 8BC0CDAB
Copy CRC 8BC0CDAB
Track not present in AccurateRip database
Copy OK
Track 15
Filename C:\EACrips\Han Bennink & Terrie Ex - The Laughing Owl (2000) (flac)\15. Dug.wav
Pre-gap length 0:00:03.00
Peak level 99.9 %
Track quality 100.0 %
Test CRC 7880704F
Copy CRC 7880704F
Track not present in AccurateRip database
Copy OK
Track 16
Filename C:\EACrips\Han Bennink & Terrie Ex - The Laughing Owl (2000) (flac)\16. Glenfoя.wav
Pre-gap length 0:00:03.00
Peak level 99.9 %
Track quality 100.0 %
Test CRC F11D0E9F
Copy CRC F11D0E9F
Track not present in AccurateRip database
Copy OK
Track 17
Filename C:\EACrips\Han Bennink & Terrie Ex - The Laughing Owl (2000) (flac)\17. Taailing.wav
Pre-gap length 0:00:03.00
Peak level 74.1 %
Track quality 100.0 %
Test CRC D6970D30
Copy CRC D6970D30
Track not present in AccurateRip database
Copy OK
None of the tracks are present in the AccurateRip database
No errors occurred
End of status report
 
CUE
REM GENRE Jazz
REM DATE 2000
REM DISCID DE0AF111
REM COMMENT "ExactAudioCopy v0.99pb4"
PERFORMER "Han Bennink & Terrie Ex"
TITLE "The Laughing Owl"
FILE "01. Kieft.flac" WAVE
TRACK 01 AUDIO
INDEX 01 00:00:00
TRACK 02 AUDIO
INDEX 00 01:22:62
FILE "02. Demp.flac" WAVE
INDEX 01 00:00:00
TRACK 03 AUDIO
INDEX 00 01:06:71
FILE "03. Bims.flac" WAVE
INDEX 01 00:00:00
TRACK 04 AUDIO
INDEX 00 01:01:71
FILE "04. Kluft.flac" WAVE
INDEX 01 00:00:00
TRACK 05 AUDIO
INDEX 00 03:22:52
FILE "05. Het Spook En De Kaas.flac" WAVE
INDEX 01 00:00:00
TRACK 06 AUDIO
INDEX 00 06:21:23
FILE "06. Knyt.flac" WAVE
INDEX 01 00:00:00
TRACK 07 AUDIO
INDEX 00 01:49:13
FILE "07. Tzwet & Tkalf.flac" WAVE
INDEX 01 00:00:00
TRACK 08 AUDIO
INDEX 00 08:30:49
FILE "08. Twototango.flac" WAVE
INDEX 01 00:00:00
TRACK 09 AUDIO
INDEX 00 01:04:32
FILE "09. Tuk.flac" WAVE
INDEX 01 00:00:00
TRACK 10 AUDIO
INDEX 00 01:36:43
FILE "10. Song Of The Slender Moa.flac" WAVE
INDEX 01 00:00:00
TRACK 11 AUDIO
INDEX 00 02:31:38
FILE "11. Fik.flac" WAVE
INDEX 01 00:00:00
TRACK 12 AUDIO
INDEX 00 01:16:69
FILE "12. The Lauging Owl.flac" WAVE
INDEX 01 00:00:00
TRACK 13 AUDIO
INDEX 00 01:52:45
FILE "13. Skots & Skeef.flac" WAVE
INDEX 01 00:00:00
TRACK 14 AUDIO
INDEX 00 02:38:62
FILE "14. Zeepijn.flac" WAVE
INDEX 01 00:00:00
TRACK 15 AUDIO
INDEX 00 02:03:25
FILE "15. Dug.flac" WAVE
INDEX 01 00:00:00
TRACK 16 AUDIO
INDEX 00 03:20:31
FILE "16. Glenfoy.flac" WAVE
INDEX 01 00:00:00
TRACK 17 AUDIO
INDEX 00 04:32:17
FILE "17. Taailing.flac" WAVE
INDEX 01 00:00:00
 
Audiochecker
Started at: четверг, 03. 06. 2010. - 19:43.56
17 files found
01 -===- C:\Downloads\Music\Джаз\Han Bennink & Terrie Ex - The Laughing Owl - 2000\01. Kieft.flac
Extracted successfully
Conclusion: This track looks like CDDA with probability 100%
Tempfile successfully deleted.
02 -===- C:\Downloads\Music\Джаз\Han Bennink & Terrie Ex - The Laughing Owl - 2000\02. Demp.flac
Extracted successfully
Conclusion: This track looks like CDDA with probability 100%
Tempfile successfully deleted.
03 -===- C:\Downloads\Music\Джаз\Han Bennink & Terrie Ex - The Laughing Owl - 2000\03. Bims.flac
Extracted successfully
Conclusion: This track looks like CDDA with probability 100%
Tempfile successfully deleted.
04 -===- C:\Downloads\Music\Джаз\Han Bennink & Terrie Ex - The Laughing Owl - 2000\04. Kluft.flac
Extracted successfully
Conclusion: This track looks like CDDA with probability 100%
Tempfile successfully deleted.
05 -===- C:\Downloads\Music\Джаз\Han Bennink & Terrie Ex - The Laughing Owl - 2000\05. Het Spook En De Kaas.flac
Extracted successfully
Conclusion: This track looks like CDDA with probability 100%
Tempfile successfully deleted.
06 -===- C:\Downloads\Music\Джаз\Han Bennink & Terrie Ex - The Laughing Owl - 2000\06. Knyt.flac
Extracted successfully
Conclusion: This track looks like CDDA with probability 100%
Tempfile successfully deleted.
07 -===- C:\Downloads\Music\Джаз\Han Bennink & Terrie Ex - The Laughing Owl - 2000\07. Tzwet & Tkalf.flac
Extracted successfully
Conclusion: This track looks like CDDA with probability 100%
Tempfile successfully deleted.
08 -===- C:\Downloads\Music\Джаз\Han Bennink & Terrie Ex - The Laughing Owl - 2000\08. Twototango.flac
Extracted successfully
Conclusion: This track looks like CDDA with probability 100%
Tempfile successfully deleted.
09 -===- C:\Downloads\Music\Джаз\Han Bennink & Terrie Ex - The Laughing Owl - 2000\09. Tuk.flac
Extracted successfully
Conclusion: This track looks like CDDA with probability 100%
Tempfile successfully deleted.
10 -===- C:\Downloads\Music\Джаз\Han Bennink & Terrie Ex - The Laughing Owl - 2000\10. Song Of The Slender Moa.flac
Extracted successfully
Conclusion: This track looks like CDDA with probability 100%
Tempfile successfully deleted.
11 -===- C:\Downloads\Music\Джаз\Han Bennink & Terrie Ex - The Laughing Owl - 2000\11. Fik.flac
Extracted successfully
Conclusion: This track looks like CDDA with probability 100%
Tempfile successfully deleted.
12 -===- C:\Downloads\Music\Джаз\Han Bennink & Terrie Ex - The Laughing Owl - 2000\12. The Lauging Owl.flac
Extracted successfully
Conclusion: This track looks like CDDA with probability 100%
Tempfile successfully deleted.
13 -===- C:\Downloads\Music\Джаз\Han Bennink & Terrie Ex - The Laughing Owl - 2000\13. Skots & Skeef.flac
Extracted successfully
Conclusion: This track looks like CDDA with probability 100%
Tempfile successfully deleted.
14 -===- C:\Downloads\Music\Джаз\Han Bennink & Terrie Ex - The Laughing Owl - 2000\14. Zeepijn.flac
Extracted successfully
Conclusion: This track looks like CDDA with probability 100%
Tempfile successfully deleted.
15 -===- C:\Downloads\Music\Джаз\Han Bennink & Terrie Ex - The Laughing Owl - 2000\15. Dug.flac
Extracted successfully
Conclusion: This track looks like CDDA with probability 100%
Tempfile successfully deleted.
16 -===- C:\Downloads\Music\Джаз\Han Bennink & Terrie Ex - The Laughing Owl - 2000\16. Glenfoy.flac
Extracted successfully
Conclusion: This track looks like CDDA with probability 100%
Tempfile successfully deleted.
17 -===- C:\Downloads\Music\Джаз\Han Bennink & Terrie Ex - The Laughing Owl - 2000\17. Taailing.flac
Extracted successfully
Conclusion: This track looks like CDDA with probability 100%
Tempfile successfully deleted.
Finished at: четверг, 03. 06. 2010. - 19:51.58 (operation time: 0:08.01)
На замену сомнительному рипу.
По всем вопросам пишите личное сообщение пользователю M0p94ok.
23:25
157
Нет комментариев. Ваш будет первым!