Вы используете незарегистрированную версию компонента "Вкладки"!

Поиск

(free jazz) Taylor Ho Bynum, Tomas Fujiwara - True Events 2006, FLAC (tracks+.cue), lossless

(free jazz) Taylor Ho Bynum, Tomas Fujiwara - True Events 2006, FLAC (tracks+.cue), lossless
Треклист:

Taylor Ho Bynum, Tomas Fujiwara - True Events 2006
Жанр: free jazz
Год издания диска: 2006
Аудиокодек: FLAC (*.flac)
Тип рипа: tracks+.cue
Битрейт аудио: lossless
Продолжительность: 43 min
Источник (релизер): what.cd
Наличие сканов в содержимом раздачи: нет
Треклист:
01 Wisdom.flac
02 The Upset.flac
03 Five Miniatures (Ficciones).flac
04 Ship.flac
05 The Leaning Reflection.flac
06 Akickitaround.flac
07 Biloxi Ikuru.flac
08 The Emperor of Ice Cream.flac
09 Wisdom (Reprise).flac
 
Лог создания рипа
Exact Audio Copy V0.99 prebeta 5 from 4. May 2009
EAC extraction logfile from 27. December 2009, 20:15
Taylor Ho Bynum & Tomas Fujiwara / True Events
Used drive : LITE-ON LTR-52246S Adapter: 0 ID: 0
Read mode : Secure
Utilize accurate stream : Yes
Defeat audio cache : Yes
Make use of C2 pointers : No
Read offset correction : 6
Overread into Lead-In and Lead-Out : No
Fill up missing offset samples with silence : Yes
Delete leading and trailing silent blocks : No
Null samples used in CRC calculations : No
Used interface : Native Win32 interface for Win NT & 2000
Gap handling : Appended to previous track
Used output format : User Defined Encoder
Selected bitrate : 128 kBit/s
Quality : High
Add ID3 tag : No
Command line compressor : C:\Program Files\FLAC\flac.exe
Additional command line options : -T "artist=%a" -T "title=%t" -T "album=%g" -T "date=%y" -T "tracknumber=%n" -T "genre=%m" -5 %s
TOC of the extracted CD
Track | Start | Length | Start sector | End sector
---------------------------------------------------------
1 | 0:00.00 | 1:28.32 | 0 | 6631
2 | 1:28.32 | 5:07.71 | 6632 | 29727
3 | 6:36.28 | 6:58.44 | 29728 | 61121
4 | 13:34.72 | 3:28.29 | 61122 | 76750
5 | 17:03.26 | 4:06.13 | 76751 | 95213
6 | 21:09.39 | 3:05.51 | 95214 | 109139
7 | 24:15.15 | 1:47.44 | 109140 | 117208
8 | 26:02.59 | 14:28.33 | 117209 | 182341
9 | 40:31.17 | 2:40.35 | 182342 | 194376
Track 1
Filename F:\uTorrent\uploads\True Events FLAC\Wisdom.wav
Pre-gap length 0:00:02.00
Peak level 85.1 %
Track quality 100.0 %
Test CRC F1247698
Copy CRC F1247698
Track not present in AccurateRip database
Copy OK
Track 2
Filename F:\uTorrent\uploads\True Events FLAC\The Upset.wav
Pre-gap length 0:00:00.45
Peak level 97.7 %
Track quality 100.0 %
Test CRC 32ED13DE
Copy CRC 32ED13DE
Track not present in AccurateRip database
Copy OK
Track 3
Filename F:\uTorrent\uploads\True Events FLAC\Five Miniatures (Ficciones).wav
Pre-gap length 0:00:00.08
Peak level 97.7 %
Track quality 100.0 %
Test CRC 3E5B06DC
Copy CRC 3E5B06DC
Track not present in AccurateRip database
Copy OK
Track 4
Filename F:\uTorrent\uploads\True Events FLAC\Ship.wav
Pre-gap length 0:00:01.60
Peak level 97.7 %
Track quality 100.0 %
Test CRC C7836D61
Copy CRC C7836D61
Track not present in AccurateRip database
Copy OK
Track 5
Filename F:\uTorrent\uploads\True Events FLAC\The Leaning Reflection.wav
Pre-gap length 0:00:00.16
Peak level 97.7 %
Track quality 100.0 %
Test CRC 8D556B91
Copy CRC 8D556B91
Track not present in AccurateRip database
Copy OK
Track 6
Filename F:\uTorrent\uploads\True Events FLAC\Akickitaround.wav
Pre-gap length 0:00:02.18
Peak level 88.9 %
Track quality 100.0 %
Test CRC F24099FB
Copy CRC F24099FB
Track not present in AccurateRip database
Copy OK
Track 7
Filename F:\uTorrent\uploads\True Events FLAC\Biloxi , Ikuru.wav
Peak level 45.2 %
Track quality 99.9 %
Test CRC 51FCEB08
Copy CRC 51FCEB08
Track not present in AccurateRip database
Copy OK
Track 8
Filename F:\uTorrent\uploads\True Events FLAC\The Emperor of Ice Cream.wav
Peak level 97.7 %
Track quality 100.0 %
Test CRC 7041838C
Copy CRC 7041838C
Track not present in AccurateRip database
Copy OK
Track 9
Filename F:\uTorrent\uploads\True Events FLAC\Wisdom (Reprise).wav
Pre-gap length 0:00:00.03
Peak level 61.5 %
Track quality 100.0 %
Test CRC D0725BAB
Copy CRC D0725BAB
Track not present in AccurateRip database
Copy OK
None of the tracks are present in the AccurateRip database
No errors occurred
End of status report
 
Содержание индексной карты (.CUE)
REM GENRE Avant - jazz
REM DATE 2006
CATALOG 482 1052
PERFORMER "Taylor Ho Bynum, Tomas Fujiwara"
TITLE "True Events"
FILE "01 Wisdom.flac" WAVE
TRACK 01 AUDIO
TITLE "Wisdom"
INDEX 01 00:00:00
FILE "02 The Upset.flac" WAVE
TRACK 02 AUDIO
TITLE "The Upset"
INDEX 01 00:00:00
FILE "03 Five Miniatures (Ficciones).flac" WAVE
TRACK 03 AUDIO
TITLE "Five Miniatures (Ficciones)"
INDEX 01 00:00:00
FILE "04 Ship.flac" WAVE
TRACK 04 AUDIO
TITLE "Ship"
INDEX 01 00:00:00
FILE "05 The Leaning Reflection.flac" WAVE
TRACK 05 AUDIO
TITLE "The Leaning Reflection"
INDEX 01 00:00:00
FILE "06 Akickitaround.flac" WAVE
TRACK 06 AUDIO
TITLE "Akickitaround"
INDEX 01 00:00:00
FILE "07 Biloxi Ikuru.flac" WAVE
TRACK 07 AUDIO
TITLE "Biloxi / Ikuru"
INDEX 01 00:00:00
FILE "08 The Emperor of Ice Cream.flac" WAVE
TRACK 08 AUDIO
TITLE "The Emperor of Ice Cream"
INDEX 01 00:00:00
FILE "09 Wisdom (Reprise).flac" WAVE
TRACK 09 AUDIO
TITLE "Wisdom (Reprise)"
INDEX 01 00:00:00
Доп. информация: http://www.allmusic.com/album/true-events-r1024986
другие релизы
Any questions -> support@pro-jazz.com. По всем вопросам пишите -> support@pro-jazz.com
15:59
165
Нет комментариев. Ваш будет первым!