Вы используете незарегистрированную версию компонента "Вкладки"!

Поиск

(free jazz) Cecil Taylor - Indent 1973, FLAC (tracks+.cue), lossless

(free jazz) Cecil Taylor - Indent 1973, FLAC (tracks+.cue), lossless
Треклист:


Cecil Taylor - Indent 1973

Жанр: free jazz
Год издания диска: 1973
Аудиокодек: FLAC (*.flac)
Тип рипа: tracks+.cue
Битрейт аудио: lossless
Продолжительность: 45`20
Источник (релизер): what.cd
Наличие сканов в содержимом раздачи: нет
Треклист:
01 - Indent-First Layer
02 - Indent- Second Layer, Part 1 & Part 2
03 - Indent- Third Layer
 
Лог создания рипа
Exact Audio Copy V1.0 beta 1 from 15. November 2010
EAC extraction logfile from 12. April 2011, 17:36
Cecil Taylor / Indent
Used drive : TSSTcorpCD/DVDW SH-S182D Adapter: 1 ID: 0
Read mode : Secure
Utilize accurate stream : Yes
Defeat audio cache : Yes
Make use of C2 pointers : No
Read offset correction : 6
Overread into Lead-In and Lead-Out : No
Fill up missing offset samples with silence : Yes
Delete leading and trailing silent blocks : No
Null samples used in CRC calculations : Yes
Used interface : Native Win32 interface for Win NT & 2000
Gap handling : Appended to previous track
Used output format : User Defined Encoder
Selected bitrate : 128 kBit/s
Quality : High
Add ID3 tag : No
Command line compressor : C:\Program Files\Exact Audio Copy\Flac\flac.exe
Additional command line options : -V -8 -T "artist=%a" -T "title=%t" -T "album=%g" -T "date=%y" -T "tracknumber=%n" -T "genre=%m" %s
TOC of the extracted CD
Track | Start | Length | Start sector | End sector
---------------------------------------------------------
1 | 0:00.00 | 13:43.70 | 0 | 61794
2 | 13:43.70 | 13:45.27 | 61795 | 123696
3 | 27:29.22 | 17:50.73 | 123697 | 204019
Track 1
Filename F:\EACrips\Cecil Taylor - 1973 - Indent\01 - Indent-First Layer.wav
Pre-gap length 0:00:02.00
Peak level 60.2 %
Extraction speed 5.6 X
Track quality 100.0 %
Test CRC F8F277DD
Copy CRC F8F277DD
Cannot be verified as accurate (confidence 3) [2C068F3D], AccurateRip returned [96221BA7]
Copy OK
Track 2
Filename F:\EACrips\Cecil Taylor - 1973 - Indent\02 - Indent- Second Layer, Part 1 & Part 2.wav
Pre-gap length 0:00:02.86
Peak level 56.0 %
Extraction speed 7.0 X
Track quality 100.0 %
Test CRC 7A5DE70E
Copy CRC 7A5DE70E
Cannot be verified as accurate (confidence 3) [7D6D43CC], AccurateRip returned [1B137187]
Copy OK
Track 3
Filename F:\EACrips\Cecil Taylor - 1973 - Indent\03 - Indent- Third Layer.wav
Pre-gap length 0:00:03.53
Peak level 60.2 %
Extraction speed 8.3 X
Track quality 100.0 %
Test CRC 9AFB944F
Copy CRC 9AFB944F
Cannot be verified as accurate (confidence 3) [36544771], AccurateRip returned [BD752DC0]
Copy OK
No tracks could be verified as accurate
You may have a different pressing from the one(s) in the database
No errors occurred
End of status report
==== Log checksum 870B56DA802E980468994902ECA5AD2D497029C9BCDB8BEE0124A50298E0DD7F ====
 
Содержание индексной карты (.CUE)
REM GENRE Jazz
REM DATE 1973
REM DISCID 1E0AA003
REM COMMENT "ExactAudioCopy v1.0b1"
FILE "01 - Indent-First Layer.wav" WAVE
TRACK 01 AUDIO
FLAGS PRE
INDEX 01 00:00:00
TRACK 02 AUDIO
FLAGS PRE
INDEX 00 13:41:05
FILE "02 - Indent- Second Layer, Part 1 & Part 2.wav" WAVE
INDEX 01 00:00:00
TRACK 03 AUDIO
FLAGS PRE
INDEX 00 13:41:62
FILE "03 - Indent- Third Layer.wav" WAVE
INDEX 01 00:00:00
Доп. информация: http://www.allmusic.com/album/indent-r148625
другие релизы
По всем вопросам пишите личное сообщение пользователю M0p94ok.
15:58
238
Нет комментариев. Ваш будет первым!